<?xml version="1.0" standalone="no"?>
<!DOCTYPE svg PUBLIC "-//W3C//DTD SVG 1.1//EN" "http://www.w3.org/Graphics/SVG/1.1/DTD/svg11.dtd" >
<svg xmlns="http://www.w3.org/2000/svg">
<metadata>Generated by IcoMoon</metadata>
<defs>
<font id="rtmicons" horiz-adv-x="1024">
<font-face units-per-em="1024" ascent="960" descent="-64" />
<missing-glyph horiz-adv-x="1024" />
<glyph unicode="&#x20;" horiz-adv-x="512" d="" />
<glyph unicode="&#xe900;" glyph-name="accordion" d="M913.332 594.732h-802.66c-14.060 0-25.5-11.44-25.5-25.5v-242.46c0-14.060 11.44-25.5 25.5-25.5h802.66c14.060 0 25.5 11.44 25.5 25.5v242.46c0 14.060-11.44 25.5-25.5 25.5zM255.092 396.992c0.12-0.36-0.3-0.66-0.6-0.44l-39.18 28.48-39.2-28.48c-0.3-0.22-0.72 0.080-0.6 0.44l14.96 46.080-39.18 28.46c-0.3 0.24-0.16 0.72 0.22 0.72h48.44l14.98 46.060c0.12 0.36 0.62 0.36 0.74 0l14.98-46.060h48.44c0.38 0 0.54-0.48 0.22-0.72l-39.18-28.46 14.96-46.080zM321.612 446.572c0 3 1.22 5.72 3.18 7.68 1.98 1.96 4.7 3.18 7.7 3.18h506.92c6 0 10.88-4.86 10.88-10.86 0-3-1.22-5.72-3.2-7.68-1.96-1.96-4.68-3.18-7.68-3.18h-506.92c-6.020 0-10.88 4.86-10.88 10.86zM864.030 279.64c-11.874 0-21.5-9.624-21.5-21.5 0-10.748-6.592-19.828-14.394-19.828h-632.272c-7.802 0-14.394 9.080-14.394 19.828 0 11.876-9.626 21.5-21.5 21.5s-21.5-9.624-21.5-21.5c0-34.642 25.748-62.828 57.394-62.828h632.274c31.646 0 57.394 28.186 57.394 62.828 0 11.876-9.626 21.5-21.5 21.5zM817.736 173.688c-11.874 0-21.5-9.624-21.5-21.5 0-12.108-6.352-19.83-9.674-19.83h-549.124c-3.322 0-9.674 7.722-9.674 19.83 0 11.876-9.626 21.5-21.5 21.5s-21.5-9.624-21.5-21.5c0-35.232 23.136-62.83 52.674-62.83h549.124c29.538 0 52.674 27.598 52.674 62.83 0 11.876-9.626 21.5-21.5 21.5zM159.97 616.36c11.874 0 21.5 9.624 21.5 21.5 0 10.748 6.592 19.828 14.394 19.828h632.274c7.802 0 14.394-9.080 14.394-19.828 0-11.876 9.626-21.5 21.5-21.5s21.5 9.624 21.5 21.5c0 34.642-25.748 62.828-57.394 62.828h-632.274c-31.646 0-57.394-28.186-57.394-62.828 0-11.876 9.626-21.5 21.5-21.5zM206.264 722.312c11.874 0 21.5 9.624 21.5 21.5 0 12.106 6.352 19.828 9.674 19.828h549.124c3.322 0 9.674-7.722 9.674-19.828 0-11.876 9.626-21.5 21.5-21.5s21.5 9.624 21.5 21.5c0 35.23-23.136 62.828-52.674 62.828h-549.124c-29.538 0-52.674-27.598-52.674-62.828 0-11.876 9.626-21.5 21.5-21.5z" />
<glyph unicode="&#xe901;" glyph-name="advance-button" d="M789.352 558.482h-554.68c-35.84 0-65-29.16-65-65v-88.96c0-35.84 29.16-65 65-65h223.9l47.9-113.938-219.288 1.234v50.516c0 11.876-9.624 21.5-21.5 21.5s-21.5-9.624-21.5-21.5v-71.894c0-11.826 9.552-21.434 21.378-21.5l259.030-1.458 2.22-5.3c4.88-11.6 15.88-18.74 28.26-18.74 1.52 0 3.060 0.12 4.6 0.34 12.98 1.82 22.938 11.040 25.66 23.358l173.008-0.974c5.68 0 11.13 2.248 15.16 6.254 4.058 4.036 6.34 9.524 6.34 15.246v74.668c0 11.876-9.624 21.5-21.5 21.5s-21.5-9.624-21.5-21.5v-53.046l-146.266 0.824 4.958 42.292 87.78 9.22c14.26 1.5 25.5 12.32 27.3 26.34 1.78 13.9-6.28 27.1-19.58 32.1l-11.86 4.46h110.18c35.84 0 65 29.16 65 65v88.96c0 35.84-29.16 65-65 65zM556.992 339.522l68.48-25.74-45.080-4.74c-13.86-1.46-24.66-12-26.28-25.66l-5.52-47.060-53.1 126.32 61.5-23.12zM256.012 427.502c-11.88 0-21.5 9.62-21.5 21.5s9.62 21.5 21.5 21.5h512c11.88 0 21.5-9.62 21.5-21.5s-9.62-21.5-21.5-21.5h-512zM257.338 597.352c11.876 0 21.5 9.624 21.5 21.5v42.314h84.12c11.874 0 21.5 9.624 21.5 21.5s-9.626 21.5-21.5 21.5h-105.62c-11.874 0-21.5-9.624-21.5-21.5v-63.814c0-11.876 9.626-21.5 21.5-21.5zM661.344 661.166h85.168v-42.314c0-11.876 9.624-21.5 21.5-21.5s21.5 9.624 21.5 21.5v63.814c0 11.876-9.626 21.5-21.5 21.5h-106.668c-11.874 0-21.5-9.624-21.5-21.5s9.626-21.5 21.5-21.5zM382.066 766.862l65.818-47.82c3.214-2.334 4.56-6.476 3.332-10.254l-25.14-77.372c-2.864-8.812 7.222-16.138 14.716-10.692l65.816 47.818c3.214 2.336 7.568 2.336 10.784 0l65.818-47.818c7.496-5.446 17.58 1.88 14.716 10.692l-25.14 77.372c-1.228 3.78 0.118 7.92 3.332 10.254l65.816 47.82c7.496 5.446 3.644 17.3-5.622 17.3h-81.354c-3.974 0-7.496 2.558-8.724 6.338l-25.14 77.372c-2.862 8.812-15.328 8.812-18.192 0l-25.14-77.372c-1.228-3.78-4.75-6.338-8.724-6.338h-81.354c-9.264 0-13.118-11.856-5.622-17.3z" />
<glyph unicode="&#xe902;" glyph-name="advanced-heading" d="M367.578 573.8l-85.626-250.058h59.484l15.066 49.254h102.008l15.156-49.254h59.104l-85.248 250.058h-79.944zM367.972 410.506l36.734 120.104h5.304l36.956-120.104h-78.994zM736.602 489.88c-6.062 13.006-15.22 22.602-27.468 28.792-12.254 6.188-27.978 9.284-47.17 9.284-11.876 0-23.112-1.268-33.72-3.79-10.608-2.528-19.956-6.38-28.038-11.554-8.086-5.182-14.906-11.556-20.458-19.134-5.56-7.576-9.85-16.544-12.882-26.9l48.118-14.776c2.018 7.826 5.24 14.332 9.662 19.512 4.416 5.174 9.72 8.962 15.912 11.368 6.186 2.396 12.816 3.6 19.89 3.6 11.112 0 19.194-2.53 24.248-7.578 5.050-5.056 7.578-11.118 7.578-18.186 0-5.056-1.266-8.904-3.79-11.556-2.528-2.652-6.38-4.546-11.556-5.684-5.18-1.136-11.686-2.338-19.512-3.6-15.666-2.272-29.304-4.924-40.918-7.956-11.622-3.032-21.538-6.82-29.742-11.368-8.21-4.546-14.396-10.548-18.564-17.996-4.168-7.454-6.252-16.612-6.252-27.468 0-12.124 2.398-22.354 7.2-30.69 4.794-8.334 11.49-14.716 20.080-19.132 8.584-4.416 18.564-6.63 29.932-6.63 11.87 0 22.542 2.338 32.014 7.010 9.472 4.67 17.488 10.988 24.060 18.944 6.564 7.958 11.744 16.606 15.534 25.954h6.442c0.502-8.086 1.196-16.292 2.084-24.626 0.882-8.336 1.706-15.664 2.462-21.974h48.876c-1.012 9.094-1.894 18.246-2.652 27.468-0.758 9.216-1.326 18.436-1.706 27.658-0.378 9.216-0.568 18.244-0.568 27.090v33.718c0 20.46-3.032 37.19-9.094 50.204zM683.94 379.816c-4.044-4.8-8.334-8.78-12.882-11.936-4.546-3.16-9.348-5.624-14.398-7.386-5.056-1.772-9.85-2.652-14.398-2.652-8.336 0-15.032 2.274-20.080 6.818-5.056 4.546-7.578 10.734-7.578 18.566 0 6.060 1.384 10.858 4.168 14.396 2.776 3.536 6.69 6.252 11.746 8.146 5.050 1.894 10.734 3.468 17.050 4.736 6.31 1.26 12.692 2.396 19.132 3.408 6.442 1.008 12.752 2.462 18.944 4.358 2.648 0.81 5.086 1.776 7.388 2.84v-25.004c-2.024-6.062-5.056-11.496-9.092-16.292zM852.362 715.834h-191.030c-11.874 0-21.5-9.624-21.5-21.5s9.626-21.5 21.5-21.5h191.030c23.97 0 43.47-19.502 43.47-43.472v-360.722c0-23.97-19.5-43.472-43.47-43.472h-680.724c-23.97 0-43.47 19.502-43.47 43.472v360.722c0 23.97 19.5 43.472 43.47 43.472h191.030c11.874 0 21.5 9.624 21.5 21.5s-9.626 21.5-21.5 21.5h-191.030c-47.68 0-86.47-38.792-86.47-86.472v-360.722c0-47.682 38.792-86.472 86.47-86.472h680.724c47.68 0 86.47 38.792 86.47 86.472v360.722c0 47.682-38.792 86.472-86.47 86.472zM382.078 766.862l65.818-47.818c3.214-2.336 4.56-6.476 3.332-10.256l-25.14-77.372c-2.864-8.812 7.222-16.138 14.716-10.692l65.816 47.818c3.214 2.336 7.568 2.336 10.784 0l65.818-47.818c7.496-5.446 17.58 1.88 14.716 10.692l-25.14 77.372c-1.228 3.78 0.118 7.92 3.332 10.256l65.816 47.818c7.496 5.446 3.644 17.3-5.622 17.3h-81.354c-3.974 0-7.496 2.558-8.724 6.338l-25.14 77.372c-2.862 8.812-15.328 8.812-18.192 0l-25.14-77.372c-1.228-3.78-4.75-6.338-8.724-6.338h-81.354c-9.264 0-13.118-11.856-5.622-17.3z" />
<glyph unicode="&#xe903;" glyph-name="advanced-tabs" d="M874.072 670.972h-67.62v18.224c0 13.728-5.652 26.84-15.912 36.918l-16.526 16.238c-11.478 11.282-27.872 17.75-44.974 17.75h-118.294c-17.104 0-33.496-6.468-44.972-17.748l-7.484-7.354-7.482 7.352c-11.478 11.28-27.87 17.75-44.974 17.75h-118.294c-14.594 0-28.66-4.724-39.606-13.114 0 0 0 0.002 0 0.004-9.64 24.64-33.58 41.5-60.86 41.5h-137.84c-31.62 0-58.66-22.56-64.32-53.66l-0.34-1.92v-562.040c0-36.040 29.32-65.38 65.36-65.38h724.14c36.040 0 65.36 29.34 65.36 65.38v434.72c0 36.060-29.32 65.38-65.36 65.38zM610.746 717.102h118.294c5.836 0 11.382-2.026 14.834-5.42l16.53-16.242c1.964-1.93 3.046-4.148 3.046-6.244v-18.224h-180.206v18.224c0 3.104-0.304 6.174-0.87 9.188l13.536 13.3c3.452 3.392 8.998 5.418 14.834 5.418zM387.54 717.102h118.294c5.836 0 11.38-2.026 14.834-5.42l16.53-16.242c1.964-1.93 3.046-4.148 3.046-6.244v-18.224h-158.354c-10.78 0-20.020 7.68-22 18.26l-1.56 8.32v0.008l14.374 14.124c3.452 3.392 8.998 5.418 14.834 5.418zM896.432 170.872c0-12.34-10.040-22.38-22.36-22.38h-724.14c-12.34 0-22.36 10.040-22.36 22.38v557.84c2.52 9.82 11.38 16.78 21.66 16.78h137.84c10.78 0 20.020-7.68 22-18.26l8.56-45.9c5.76-30.92 32.8-53.36 64.26-53.36h492.18c12.32 0 22.36-10.040 22.36-22.38v-434.72zM212.412 425.492h316.92c14.060 0 25.5 11.44 25.5 25.5v92.36c0 14.060-11.44 25.5-25.5 25.5h-316.92c-14.060 0-25.5-11.44-25.5-25.5v-92.36c0-14.060 11.44-25.5 25.5-25.5zM323.372 505.612c2.1 2.1 4.98 3.38 8.16 3.38h158.2c6.36 0 11.54-5.16 11.54-11.52 0-3.2-1.3-6.080-3.38-8.16-2.1-2.080-4.98-3.38-8.16-3.38h-158.2c-6.36 0-11.54 5.16-11.54 11.54 0 3.18 1.3 6.060 3.38 8.14zM216.212 510.032h22.42c1.060 0 2.020 0.68 2.34 1.7l4.6 14.12 2.34 7.2c0.84 2.64 4.58 2.64 5.44 0l2.34-7.2 4.58-14.12c0.34-1.020 1.28-1.7 2.36-1.7h22.42c2.78 0 3.92-3.56 1.68-5.2l-18.14-13.16c-0.86-0.64-1.22-1.76-0.9-2.78l6.94-21.32c0.86-2.64-2.16-4.82-4.42-3.2l-5.68 4.12-12.46 9.060c-0.86 0.62-2.040 0.62-2.9 0l-18.14-13.18c-2.24-1.62-5.26 0.56-4.4 3.2l3.28 10.1 3.64 11.22c0.34 1.020-0.020 2.14-0.9 2.78l-2.74 1.98-15.4 11.18c-2.24 1.64-1.080 5.2 1.7 5.2zM832 511.168h-213.334c-11.874 0-21.5-9.624-21.5-21.5s9.626-21.5 21.5-21.5h213.334c11.874 0 21.5 9.624 21.5 21.5s-9.626 21.5-21.5 21.5zM190.728 341.298c0-11.876 9.626-21.5 21.5-21.5h457.17c11.874 0 21.5 9.624 21.5 21.5s-9.626 21.5-21.5 21.5h-457.17c-11.874 0-21.5-9.624-21.5-21.5zM752.156 278.388h-539.928c-11.874 0-21.5-9.624-21.5-21.5s9.626-21.5 21.5-21.5h539.928c11.874 0 21.5 9.624 21.5 21.5s-9.626 21.5-21.5 21.5z" />
<glyph unicode="&#xe904;" glyph-name="advanced-toggle" d="M654.958 426.662h-285.92c-99.74 0-180.58-80.84-180.58-180.58s80.84-180.6 180.58-180.6h285.92c49.86 0 95.020 20.22 127.7 52.9s52.9 77.84 52.9 127.7c0 99.74-80.86 180.58-180.6 180.58zM374.698 136.542c-60.040 0-108.7 48.66-108.7 108.68s48.66 108.7 108.7 108.7 108.68-48.66 108.68-108.7-48.66-108.68-108.68-108.68zM425.858 269.202h-25.48c-3.96 0-7.48 2.56-8.72 6.34l-7.86 24.24c-2.88 8.8-15.34 8.8-18.2 0l-7.88-24.24c-1.22-3.78-4.74-6.34-8.72-6.34h-25.48c-9.26 0-13.12-11.86-5.62-17.3l20.62-14.98c3.2-2.34 4.56-6.48 3.32-10.24l-7.86-24.24c-2.88-8.82 7.22-16.14 14.7-10.7l20.62 14.98c3.22 2.34 7.58 2.34 10.78 0l20.62-14.98c7.5-5.44 17.58 1.88 14.72 10.7l-7.88 24.24c-1.22 3.76 0.12 7.9 3.34 10.24l20.62 14.98c7.48 5.44 3.64 17.3-5.64 17.3zM369.038 470.822h285.92c99.74 0 180.6 80.84 180.6 180.58 0 49.86-20.22 95.020-52.9 127.7s-77.84 52.9-127.7 52.9h-285.92c-99.74 0-180.58-80.86-180.58-180.6 0-49.86 20.2-95.020 52.88-127.7s77.84-52.88 127.7-52.88zM369.038 789.002h285.92c75.86 0 137.6-61.72 137.6-137.6s-61.74-137.58-137.6-137.58h-285.92c-75.86 0-137.58 61.72-137.58 137.58s61.72 137.6 137.58 137.6zM648.058 541.882c60.020 0 108.68 48.66 108.68 108.68s-48.66 108.7-108.68 108.7-108.7-48.68-108.7-108.7 48.66-108.68 108.7-108.68zM596.878 674.542h25.48c3.98 0 7.5 2.56 8.72 6.34l7.88 24.22c2.86 8.82 15.32 8.82 18.2 0l7.86-24.22c1.24-3.78 4.76-6.34 8.74-6.34h25.48c9.26 0 13.1-11.86 5.62-17.3l-20.62-14.98c-3.22-2.34-4.56-6.48-3.34-10.26l7.88-24.24c2.86-8.8-7.22-16.12-14.72-10.68l-20.62 14.98c-3.2 2.34-7.56 2.34-10.78 0l-20.6-14.98c-7.5-5.44-17.58 1.88-14.72 10.68l7.86 24.24c1.24 3.78-0.1 7.92-3.32 10.26l-20.62 14.98c-7.5 5.44-3.64 17.3 5.62 17.3z" />
<glyph unicode="&#xe905;" glyph-name="alarm-clock" d="M895.824 384.896c0 46.944-8.512 91.936-24.032 133.552 35.168 30.128 56.368 74.448 56.368 121.568 0 88.224-71.776 160-160 160-47.024 0-91.136-21.088-121.136-56.096-32.544 12.256-67.184 20.144-103.2 23.088v33.008c0 17.664-14.336 32-32 32s-32-14.336-32-32v-33.088c-35.856-3.024-70.304-10.96-102.688-23.2-30 35.12-74.192 56.288-121.312 56.288-88.224 0-160-71.776-160-160 0-47.328 21.392-91.856 56.864-122-15.408-41.488-23.856-86.336-23.856-133.12 0-122.432 57.728-231.552 147.312-301.808l-36.736-51.072h-15.6c-17.664 0-32-14.336-32-32s14.336-32 32-32h32c10.304 0 19.968 4.96 25.984 13.312l47.808 66.48c54.352-29.584 116.608-46.4 182.72-46.4s127.808 16.688 182 46.016l47.536-66.096c6-8.352 15.68-13.312 25.984-13.312h32c17.664 0 32 14.336 32 32s-14.336 32-32 32h-15.6l-36.368 50.576c89.952 70.24 147.968 179.6 147.968 302.32zM768.176 736c52.944 0 96-43.056 96-96 0-22.304-7.952-43.568-21.6-60.464-32.832 55.488-79.2 102.016-134.576 135.008 16.8 13.568 37.952 21.456 60.176 21.456zM159.824 640c0 52.944 43.056 96 96 96 22.352 0 43.6-7.984 60.448-21.68-55.344-33.072-101.664-79.68-134.432-135.232-13.904 16.976-22 38.416-22 60.912zM192.832 384.896c0 175.184 141.76 317.76 316.576 319.36 0.816-0.064 1.584-0.24 2.416-0.24 0.944 0 1.824 0.192 2.752 0.272 44.96-0.32 87.664-10.032 126.432-27.168 0.224-0.144 0.416-0.336 0.64-0.464 1.584-0.912 3.248-1.6 4.912-2.208 109.216-50.848 185.264-161.344 185.264-289.536 0-176.176-143.328-319.504-319.504-319.504s-319.488 143.328-319.488 319.504zM543.824 474.4v133.6c0 17.664-14.336 32-32 32s-32-14.336-32-32v-133.6c-37.232-13.216-64-48.688-64-90.4 0-14.8 3.456-28.752 9.456-41.28l-63.712-63.536c-12.512-12.48-12.544-32.736-0.064-45.248 6.256-6.272 14.448-9.408 22.656-9.408s16.352 3.104 22.592 9.344l63.776 63.6c12.528-6 26.496-9.456 41.296-9.456 52.944 0 96 43.056 96 96 0 41.712-26.768 77.184-64 90.4zM511.824 352c-17.648 0-32 14.352-32 32s14.352 32 32 32 32-14.352 32-32-14.352-32-32-32zM300.288 845.392c13.952-10.784 34.048-8.224 44.896 5.728 3.76 4.848 23.392 12.88 38.656 12.88h256c15.264 0 34.88-8.032 38.656-12.88 6.32-8.144 15.792-12.4 25.36-12.4 6.832 0 13.712 2.176 19.52 6.672 13.968 10.8 16.576 30.816 5.808 44.8-21.376 27.744-65.152 37.808-89.344 37.808h-256c-24.208 0-67.968-10.064-89.344-37.808-10.768-13.984-8.144-34 5.808-44.8z" />
<glyph unicode="&#xe906;" glyph-name="alert" d="M965.424 308.544l-358.144 568.032c-21.424 32.288-57.232 51.424-96.048 51.424-0.464 0-0.96 0-1.44 0-38.336-0.464-73.296-19.92-93.504-52.048l-357.248-566.672c-20.208-30.208-22.112-68.848-4.992-100.88 17.12-32.048 50.352-51.968 86.736-51.968h242.784v-156.432c0-17.664 14.336-32 32-32h188.432c17.664 0 32 14.336 32 32v156.432h247.376c36.288 0 69.456 19.904 86.56 51.936 17.12 32.048 15.216 70.704-4.512 100.176zM572 32h-124.432v124.432h124.432v-124.432zM913.504 238.528c-6.064-11.328-17.312-18.096-30.128-18.096h-742.592c-12.896 0-24.224 6.784-30.288 18.128-6.048 11.328-5.408 24.448 2.208 35.856l357.728 567.408c8.736 13.888 23.376 21.968 40.144 22.176h0.656c17.28 0 33.216-8.48 42.336-22.192l358.208-568.128c7.136-10.672 7.776-23.824 1.728-35.152zM572.592 691.52h-125.632c-16.784 0-32.784-7.184-43.92-19.712-11.36-12.8-16.704-29.984-14.656-47.152l22.4-189.072c1.824-15.312 8.96-28.736 19.232-39.040-9.488-14.752-15.056-32.256-15.056-51.072 0-52.272 42.528-94.8 94.816-94.8s94.816 42.528 94.816 94.8c0 18.832-5.584 36.336-15.088 51.104 10.048 10.176 17.168 23.488 19.472 39.008l22.272 188.16c2.512 17.040-2.48 34.272-13.68 47.264-11.264 13.024-27.664 20.512-44.976 20.512zM567.264 627.52l-21.712-183.488c-0.336-2.224-2.128-3.76-4.352-3.76h-62.816c-1.92 0-3.84 1.36-4.016 2.848l-21.856 184.4h114.768zM509.776 314.656c-16.992 0-30.816 13.808-30.816 30.8s13.824 30.816 30.816 30.816 30.816-13.824 30.816-30.816-13.824-30.8-30.816-30.8zM792.416 753.136c8.192 0 16.368 3.12 22.624 9.376l94.224 94.224c12.496 12.496 12.496 32.752 0 45.248s-32.752 12.496-45.248 0l-94.224-94.224c-12.496-12.496-12.496-32.752 0-45.248 6.256-6.256 14.432-9.376 22.624-9.376zM826.608 673.824c-7.904-15.808-1.504-35.024 14.32-42.944l62.816-31.408c4.592-2.304 9.488-3.376 14.288-3.376 11.744 0 23.040 6.464 28.656 17.68 7.904 15.808 1.504 35.024-14.32 42.944l-62.816 31.408c-15.856 7.92-35.024 1.488-42.944-14.32zM204.496 762.512c6.256-6.256 14.432-9.376 22.624-9.376s16.368 3.12 22.624 9.376c12.496 12.496 12.496 32.752 0 45.248l-94.224 94.224c-12.496 12.496-32.752 12.496-45.248 0s-12.496-32.752 0-45.248l94.224-94.224zM101.536 596.112c4.8 0 9.68 1.072 14.288 3.376l62.816 31.408c15.808 7.904 22.224 27.12 14.32 42.944-7.904 15.792-27.088 22.24-42.944 14.32l-62.816-31.408c-15.808-7.904-22.224-27.12-14.32-42.944 5.616-11.216 16.912-17.68 28.656-17.68z" />
<glyph unicode="&#xe907;" glyph-name="animated-heading" d="M853.334 704.532h-208.22v43.706h53.228c11.874 0 21.5 9.624 21.5 21.5s-9.626 21.5-21.5 21.5h-149.284c-11.874 0-21.5-9.624-21.5-21.5s9.626-21.5 21.5-21.5h53.056v-43.706h-431.448c-47.146 0-85.5-38.356-85.5-85.5v-341.338c0-47.144 38.354-85.5 85.5-85.5h431.446v-44.432h-53.056c-11.874 0-21.5-9.624-21.5-21.5s9.626-21.5 21.5-21.5h149.284c11.874 0 21.5 9.624 21.5 21.5s-9.626 21.5-21.5 21.5h-53.228v44.432h208.22c47.144 0 85.5 38.356 85.5 85.5v341.338c0 47.144-38.356 85.5-85.5 85.5zM170.666 235.194c-23.434 0-42.5 19.066-42.5 42.5v264.48l119.358 119.358h354.588v-112.198c-6.36-2.614-12.148-5.772-17.29-9.484-8.246-5.796-14.934-12.706-20.284-20.954s-9.138-17.388-11.146-27.642l35.664-11.816c2.008 11.816 6.248 21.176 12.484 28.088 0.186 0.2 0.382 0.378 0.57 0.576v-56.1c-12.356-3.748-22.586-8.344-30.662-13.802-8.028-5.574-13.824-12.484-17.834-20.286-3.788-8.026-5.574-17.166-5.574-27.644 0-14.266 2.678-25.858 8.468-34.998 5.572-9.364 13.154-16.050 22.738-20.732 6.84-3.256 14.526-5.312 22.862-6.188v-93.16h-431.442zM602.112 363.786c-1.948 1.076-3.772 2.322-5.474 3.75-6.906 5.796-10.476 14.266-10.476 25.634 0 9.364 2.23 16.718 6.912 22.068 2.51 3.014 5.536 5.662 9.038 7.928v-59.38zM645.112 436.42c5.974 0.998 11.918 1.936 17.956 2.672 9.138 1.116 17.388 2.898 24.97 5.352 2.45 0.668 4.458 1.782 6.46 2.674v-11.998c0-16.416-4.454-32.97-14.76-45.748-0.058-0.072-0.116-0.144-0.174-0.214-5.572-7.134-11.592-12.93-18.058-17.386-5.344-3.822-10.858-6.654-16.394-8.79v73.438zM689.372 472.752c-3.118-3.122-7.798-5.574-14.488-6.91-6.466-1.338-14.934-2.898-25.41-4.236-1.48-0.212-2.914-0.438-4.36-0.662v64.764c1.156 0.060 2.312 0.098 3.468 0.098 15.604 0 26.972-3.79 34.554-11.146 7.352-7.358 10.922-16.274 10.922-26.75 0-6.91-1.562-11.814-4.686-15.158zM895.834 277.694c0-23.434-19.066-42.5-42.5-42.5h-208.22v96c26.254 6.17 53.178 22.63 53.178 45.044 0 0 0.892-7.144 1.562-16.286 0.664-9.362 1.338-18.28 1.78-26.972h36.116c-0.892 8.916-1.562 18.724-2.454 28.98-0.892 10.252-1.556 20.732-2.226 30.984-0.446 10.478-0.67 20.064-0.446 29.204v48.818c0 19.84-3.124 36.114-9.366 49.266-6.020 12.93-15.38 22.516-27.418 28.534-12.256 6.242-27.642 9.14-45.922 9.14-1.628 0-3.212-0.048-4.802-0.092v103.716h208.22c23.434 0 42.5-19.064 42.5-42.5v-341.338zM359.848 613.174l-98.954-280.282h42.472l20.914 62.848h128.038l20.914-62.848h42.048l-98.528 280.282h-56.906zM334.176 425.478l51.578 154.998h5.094l51.578-154.998h-108.248z" />
<glyph unicode="&#xe908;" glyph-name="arrow-down" d="M897.824 385.824c-12.48 12.496-32.768 12.496-45.248 0l-308.528-308.528 0.784 818.672c0 17.664-14.304 32.016-31.968 32.032h-0.032c-17.664 0-31.984-14.304-32-31.968l-0.784-818.816-308.624 308.624c-12.48 12.496-32.768 12.496-45.248 0-12.496-12.496-12.496-32.752 0-45.248l363.2-363.2c6.24-6.256 14.432-9.376 22.624-9.376s16.384 3.12 22.624 9.376l363.2 363.2c12.496 12.496 12.496 32.752 0 45.248z" />
<glyph unicode="&#xe909;" glyph-name="arrow-down-left" d="M854.656 790.016c-12.48 12.496-32.736 12.528-45.264 0.032l-585.392-584.272v441.2c0 17.664-14.336 32-32 32s-32-14.336-32-32v-518.384c0-17.664 14.336-32 32-32h518.384c17.664 0 32 14.336 32 32s-14.336 32-32 32h-441.056l585.28 584.176c12.512 12.48 12.528 32.736 0.032 45.264z" />
<glyph unicode="&#xe90a;" glyph-name="arrow-down-right" d="M843.904 680.48c-17.696 0-32.048-14.352-32.048-32.048v-441.792l-585.152 586.24c-12.512 12.512-32.8 12.56-45.328 0.032-12.528-12.512-12.544-32.8-0.032-45.328l585.264-586.368h-441.936c-17.696 0-32.048-14.352-32.048-32.048s14.352-32.048 32.048-32.048h519.248c17.696 0 32.048 14.352 32.048 32.048v519.248c0 17.696-14.352 32.048-32.048 32.048z" />
<glyph unicode="&#xe90b;" glyph-name="arrow-down-to-line" d="M489.296 179.296c6.256-6.256 14.432-9.376 22.624-9.376s16.368 3.12 22.624 9.376l288.624 288.624c12.496 12.496 12.496 32.752 0 45.248s-32.752 12.496-45.248 0l-233.952-233.936 0.608 616.224c0 17.664-14.304 32.016-31.968 32.032h-0.032c-17.664 0-31.984-14.304-32-31.968l-0.608-616.4-234.048 234.048c-12.496 12.496-32.752 12.496-45.248 0s-12.496-32.752 0-45.248l288.624-288.624zM870.224 31.488l-715.136 0.672c-17.664 0-31.984-14.304-32-31.968 0-17.664 14.304-32.016 31.968-32.032l715.136-0.672c17.664 0 31.984 14.304 32 31.968 0 17.664-14.304 32.016-31.968 32.032z" />
<glyph unicode="&#xe90c;" glyph-name="arrow-left" d="M960.032 479.168l-818.816 0.784 308.608 308.624c12.496 12.496 12.496 32.752 0 45.248-12.48 12.496-32.768 12.496-45.248 0l-363.2-363.2c-12.496-12.496-12.496-32.752 0-45.248l363.2-363.2c6.24-6.256 14.432-9.376 22.624-9.376s16.384 3.12 22.624 9.376c12.496 12.496 12.496 32.752 0 45.248l-308.528 308.528 818.704-0.784c17.664 0 31.984 14.304 32 31.968 0 17.664-14.304 32.016-31.968 32.032z" />
<glyph unicode="&#xe90d;" glyph-name="arrow-long-down" d="M756.928 245.808c-12.528 12.48-32.784 12.448-45.264-0.064l-167.76-168.304v818.56c0 17.664-14.336 32-32 32s-32-14.336-32-32v-818.352l-167.52 168.72c-12.464 12.544-32.72 12.624-45.264 0.16s-12.608-32.72-0.16-45.264l222.24-223.824s0.032-0.032 0.048-0.048c1.472-1.472 3.072-2.8 4.8-3.968 0.272-0.192 0.592-0.304 0.864-0.48 1.488-0.928 3.008-1.808 4.64-2.496 0.464-0.192 0.976-0.272 1.456-0.448 1.472-0.544 2.96-1.072 4.528-1.392 2.064-0.416 4.192-0.64 6.32-0.64h0.032c2.144 0 4.272 0.224 6.336 0.64 1.328 0.272 2.56 0.736 3.808 1.168 0.72 0.24 1.472 0.384 2.176 0.672 1.344 0.56 2.56 1.312 3.808 2.032 0.56 0.32 1.168 0.56 1.696 0.928 1.728 1.168 3.328 2.48 4.8 3.952 0 0 0.016 0 0.032 0.032l222.416 223.136c12.48 12.528 12.448 32.784-0.064 45.264z" />
<glyph unicode="&#xe90e;" glyph-name="arrow-long-left" d="M960 480.096h-818.352l168.704 167.52c12.544 12.448 12.608 32.72 0.16 45.264-12.432 12.528-32.72 12.624-45.248 0.16l-223.808-222.24s-0.032-0.032-0.048-0.064c-1.472-1.472-2.8-3.072-3.952-4.8-0.256-0.384-0.416-0.832-0.656-1.216-0.848-1.392-1.68-2.784-2.304-4.304-0.176-0.432-0.256-0.896-0.416-1.328-0.56-1.52-1.104-3.056-1.424-4.672-0.416-2.064-0.64-4.176-0.64-6.32 0 0 0 0 0 0s0 0 0 0c0-0.336 0.096-0.656 0.096-0.992 0.048-1.808 0.192-3.6 0.544-5.344 0.24-1.184 0.672-2.272 1.040-3.392 0.272-0.864 0.448-1.76 0.8-2.592 0.528-1.28 1.248-2.448 1.952-3.648 0.352-0.608 0.608-1.264 1.008-1.856 1.168-1.728 2.48-3.344 3.952-4.8 0 0 0-0.016 0.032-0.032l223.136-222.416c6.256-6.224 14.416-9.328 22.592-9.328s16.4 3.136 22.656 9.408c12.48 12.528 12.448 32.784-0.064 45.264l-168.304 167.76h818.576c17.664 0 32 14.336 32 32s-14.336 32-32 32z" />
<glyph unicode="&#xe90f;" glyph-name="arrow-long-right" d="M989.52 435.568c0.176 0.432 0.256 0.912 0.416 1.36 0.56 1.504 1.088 3.024 1.424 4.64 0.416 2.064 0.64 4.176 0.64 6.32 0 0 0 0 0 0s0 0 0 0c0 0.336-0.096 0.656-0.096 0.992-0.048 1.808-0.192 3.6-0.544 5.344-0.24 1.184-0.672 2.272-1.040 3.392-0.272 0.864-0.448 1.76-0.8 2.592-0.528 1.28-1.248 2.448-1.952 3.648-0.352 0.608-0.608 1.264-1.008 1.856-1.168 1.728-2.48 3.344-3.952 4.8 0 0 0 0.016-0.032 0.032l-223.136 222.416c-12.528 12.48-32.784 12.432-45.248-0.064-12.48-12.528-12.448-32.784 0.064-45.264l168.304-167.76h-818.56c-17.664 0-32-14.336-32-32s14.336-32 32-32h818.352l-168.704-167.52c-12.544-12.448-12.608-32.72-0.16-45.264 6.256-6.304 14.464-9.456 22.704-9.456 8.16 0 16.32 3.088 22.544 9.296l223.808 222.24s0.032 0.032 0.048 0.064c1.472 1.472 2.8 3.072 3.952 4.8 0.272 0.4 0.448 0.864 0.688 1.28 0.832 1.36 1.648 2.752 2.272 4.24z" />
<glyph unicode="&#xe910;" glyph-name="arrow-long-up" d="M757.024 694.72l-222.24 223.824s-0.016 0.016-0.032 0.032c-1.472 1.488-3.104 2.816-4.832 4-0.096 0.064-0.208 0.096-0.304 0.16-1.632 1.072-3.36 2.032-5.184 2.784-0.384 0.16-0.816 0.224-1.216 0.384-1.552 0.576-3.104 1.12-4.768 1.456-2.064 0.416-4.176 0.64-6.32 0.64h-0.032c-2.144 0-4.256-0.224-6.336-0.64-1.392-0.288-2.704-0.768-4.016-1.216-0.656-0.224-1.328-0.352-1.968-0.608-1.456-0.608-2.8-1.408-4.128-2.208-0.448-0.272-0.944-0.448-1.376-0.752-1.744-1.168-3.36-2.496-4.832-3.968 0 0 0 0 0 0l-222.416-223.136c-12.48-12.528-12.448-32.784 0.064-45.264 12.512-12.464 32.768-12.432 45.248 0.064l167.76 168.304v-818.576c0-17.664 14.336-32 32-32s32 14.336 32 32v818.352l167.536-168.72c6.256-6.304 14.464-9.456 22.704-9.456 8.16 0 16.32 3.088 22.544 9.296 12.544 12.448 12.608 32.72 0.16 45.264z" />
<glyph unicode="&#xe911;" glyph-name="arrow-right" d="M982.624 470.624l-363.2 363.2c-12.48 12.496-32.768 12.496-45.248 0-12.496-12.496-12.496-32.752 0-45.248l308.528-308.528-818.704 0.784c-17.664 0-31.984-14.304-32-31.968 0-17.664 14.304-32.016 31.968-32.032l818.816-0.784-308.624-308.624c-12.496-12.496-12.496-32.752 0-45.248 6.24-6.256 14.432-9.376 22.624-9.376s16.384 3.12 22.624 9.376l363.2 363.2c12.496 12.496 12.496 32.752 0 45.248z" />
<glyph unicode="&#xe912;" glyph-name="arrow-up" d="M897.824 555.424l-363.2 363.2c-12.48 12.496-32.768 12.496-45.248 0l-363.2-363.2c-12.496-12.496-12.496-32.752 0-45.248 12.48-12.496 32.768-12.496 45.248 0l308.528 308.528-0.784-818.672c0-17.664 14.304-32.016 31.968-32.032h0.032c17.664 0 31.984 14.304 32 31.968l0.784 818.816 308.624-308.624c6.24-6.256 14.432-9.376 22.624-9.376s16.384 3.12 22.624 9.376c12.496 12.496 12.496 32.752 0 45.248z" />
<glyph unicode="&#xe913;" glyph-name="arrow-up-left" d="M854.656 150.016l-585.456 586.576h442.144c17.664 0 32 14.336 32 32s-14.336 32-32 32h-519.344c-17.664 0-32-14.336-32-32v-519.344c0-17.664 14.336-32 32-32s32 14.336 32 32v442.016l585.344-586.464c6.272-6.256 14.448-9.392 22.656-9.392s16.352 3.12 22.608 9.344c12.496 12.48 12.528 32.736 0.048 45.264z" />
<glyph unicode="&#xe914;" glyph-name="arrow-up-right" d="M832 799.408h-518.384c-17.664 0-32-14.336-32-32s14.336-32 32-32h441.072l-585.296-584.176c-12.496-12.48-12.528-32.736-0.048-45.264 6.272-6.256 14.448-9.392 22.656-9.392s16.352 3.12 22.608 9.344l585.392 584.288v-441.184c0-17.664 14.336-32 32-32s32 14.336 32 32v518.384c0 17.664-14.336 32-32 32z" />
<glyph unicode="&#xe915;" glyph-name="author-box" d="M512.12 874.834c-114.058 0-221.28-44.406-301.912-125.040-80.634-80.632-125.040-187.854-125.040-301.91 0-99.776 35.244-196.962 99.274-273.698 6.33-7.546 12.994-14.954 19.806-22.012 2.774-2.944 5.57-5.684 8.276-8.336 1.248-1.222 2.502-2.452 3.758-3.708l0.318-0.308c79.838-76.518 184.788-118.656 295.518-118.656s215.708 42.148 295.272 118.64c11.324 10.832 22.152 22.406 32.174 34.388 64.014 76.41 99.268 173.608 99.268 273.688 0 235.42-191.422 426.95-426.714 426.95zM806.594 201.798c-6.828-8.162-14.068-16.106-21.616-23.726-41.74 110.216-148.292 188.628-272.858 188.628s-231.34-78.404-273.086-188.612c-1.232 1.23-2.424 2.442-3.56 3.65l-0.198 0.208c-6.152 6.37-12.17 13.054-17.854 19.832-57.558 68.976-89.256 156.378-89.256 246.106 0 211.71 172.24 383.95 383.952 383.95s383.714-172.238 383.714-383.95c0-90-31.688-177.39-89.24-246.086zM656.833 584.381c7.918-79.964-50.487-151.207-130.451-159.125s-151.207 50.487-159.125 130.451c-7.918 79.964 50.487 151.207 130.451 159.125s151.207-50.487 159.125-130.451z" />
<glyph unicode="&#xe916;" glyph-name="award" d="M510.576 687.12c-66.512 0-120.448-53.92-120.448-120.448s53.92-120.448 120.448-120.448 120.448 53.92 120.448 120.448-53.92 120.448-120.448 120.448zM510.576 510.24c-31.12 0-56.448 25.312-56.448 56.448s25.312 56.448 56.448 56.448 56.448-25.312 56.448-56.448-25.312-56.448-56.448-56.448zM670.784 273.312c18.928-0.8 38.496-1.664 47.072 4.368 9.44 6.608 15.472 25.808 21.296 44.384 6.224 19.84 12.672 40.352 25.68 57.616 13.168 17.472 31.248 29.424 48.736 40.992 14.384 9.504 29.2 19.296 34.832 28.816 0.24 2.576 0.784 5.104 1.632 7.552 3.584 10.336-2.672 29.184-8.704 47.376-6.32 19.056-13.488 40.672-13.088 62.736 0.368 21.28 7.888 41.168 15.152 60.4 6.944 18.384 14.112 37.392 10.608 48.896-3.504 11.52-20.064 23.28-36.080 34.656-16.752 11.904-34.080 24.208-46.272 41.664-12.656 18.096-18.752 40.016-24.144 59.376-5.152 18.48-10.464 37.6-19.2 44.176-8.976 6.752-28.896 6.528-48.272 6.448-21.024-0.16-42.656-0.336-63.312 6.816-20.432 7.072-37.216 20.496-53.456 33.488-15.2 12.16-30.912 24.736-42.432 24.944-10.272 0.48-26.256-11.408-41.504-22.656-16.384-12.048-34.944-25.728-56.496-32.304-21.552-6.56-44.592-5.584-64.912-4.72-18.912 0.768-38.464 1.632-47.056-4.368-9.456-6.608-15.488-25.808-21.328-44.384-6.224-19.824-12.656-40.336-25.664-57.6-13.168-17.488-31.264-29.44-48.752-40.992-16.112-10.656-32.768-21.664-36.448-32.272-3.584-10.336 2.672-29.168 8.704-47.376 6.32-19.056 13.488-40.672 13.088-62.736-0.384-21.28-7.888-41.152-15.152-60.384-6.944-18.384-14.128-37.392-10.624-48.912 0.72-2.4 1.168-4.864 1.328-7.36 5.312-10.464 20.256-21.088 34.768-31.392 16.752-11.904 34.080-24.208 46.272-41.664 12.656-18.096 18.752-40.032 24.144-59.376 5.136-18.48 10.464-37.584 19.2-44.16 8.976-6.752 28.96-6.592 48.272-6.448 3.184 0.016 6.384 0.048 9.6 0.048 17.936 0 36.192-0.8 53.728-6.864 20.432-7.072 37.216-20.496 53.456-33.488 15.2-12.16 30.912-24.736 42.432-24.944h0.256c10.48 0 26.128 11.52 41.248 22.656 16.368 12.048 34.944 25.728 56.496 32.304s44.592 5.584 64.912 4.72zM540.608 294.752c-10.944-8.064-24.832-17.936-31.584-17.968-7.888 0.144-20.912 10.56-32.4 19.76-13.296 10.64-28.368 22.688-46.32 28.912-15.488 5.36-31.904 6.032-47.040 6.032-2.624 0-5.216-0.016-7.744-0.048-14.608-0.080-31.168-0.24-37.264 4.352-5.92 4.464-10.528 20.992-14.224 34.256-4.624 16.608-9.856 35.424-20.976 51.328-10.72 15.344-26.288 26.384-40 36.144-10.752 7.648-22.768 16.176-27.040 23.568-0.208 2.096-0.624 4.16-1.232 6.176-2.416 7.952 3.536 23.712 8.784 37.616 5.952 15.744 12.688 33.6 13.024 52.336 0.352 19.376-5.808 37.936-11.232 54.304-4.336 13.072-9.744 29.36-7.328 36.352 2.496 7.216 16.304 16.352 28.496 24.4 14.32 9.472 30.56 20.192 42.112 35.552 11.44 15.184 17.216 33.6 22.32 49.84 4.4 14.032 9.392 29.952 15.872 34.48 5.76 4.016 22.672 3.296 36.24 2.72 17.456-0.752 37.216-1.6 56.112 4.176 18.896 5.76 34.832 17.488 48.88 27.84 10.88 8 24.384 17.968 31.472 17.968h0.128c7.888-0.144 20.912-10.56 32.4-19.76 13.296-10.64 28.352-22.688 46.32-28.912 18.16-6.288 37.6-6.16 54.8-6 14.56 0.112 31.168 0.256 37.248-4.336 5.92-4.464 10.512-20.976 14.208-34.256 4.624-16.608 9.872-35.44 20.976-51.328 10.72-15.344 26.288-26.416 40.016-36.16 12.112-8.608 25.84-18.368 28.272-26.32s-3.52-23.712-8.784-37.616c-5.952-15.744-12.688-33.6-13.024-52.32-0.352-19.392 5.808-37.936 11.232-54.304 4.336-13.072 9.728-29.344 7.312-36.336-0.704-2.048-1.2-4.16-1.488-6.304-4.512-6.672-16.384-14.528-27.008-21.536-14.32-9.472-30.56-20.192-42.112-35.552-11.44-15.184-17.216-33.6-22.32-49.84-4.4-14.032-9.392-29.968-15.872-34.48-5.76-4.016-22.64-3.328-36.24-2.72-17.424 0.72-37.2 1.584-56.096-4.176-18.912-5.76-34.848-17.504-48.912-27.84zM411.056 199.776l-91.632-119.056-9.92 76.112c-2.288 17.52-18.288 29.776-35.872 27.6l-76.096-9.92 53.584 69.648c-17.024 18.432-24.448 42.704-30.688 65.072l-120.72-156.912c-7.904-10.256-8.832-24.272-2.368-35.472 6.448-11.216 19.072-17.408 31.872-15.776l120.976 15.76 15.76-120.976c1.664-12.832 10.912-23.392 23.408-26.768 2.752-0.736 5.552-1.104 8.336-1.104 9.776 0 19.216 4.496 25.36 12.48l139.856 181.712c-13.68 7.472-25.952 17.248-37.424 26.432-4.8 3.84-9.648 7.632-14.4 11.152zM924.288 152.64l-121.584 158.032c-0.832-2.592-1.664-5.184-2.48-7.776-6.224-19.824-13.136-41.488-26.72-59.216l52.96-68.848-76.096 9.92c-17.52 2.256-33.584-10.080-35.872-27.6l-9.92-76.112-92.672 120.384c-7.92-4.56-16.32-10.592-24.576-16.672-8.928-6.576-18.352-13.44-28.432-19.392l142.064-184.576c6.16-8 15.584-12.48 25.36-12.48 2.768 0 5.568 0.352 8.336 1.104 12.496 3.36 21.728 13.936 23.408 26.768l15.76 120.976 120.976-15.76c12.816-1.68 25.408 4.544 31.872 15.776 6.448 11.216 5.52 25.216-2.368 35.472z" />
<glyph unicode="&#xe917;" glyph-name="back-to-top-button" d="M661.172 459.526v-282.84c0-11.88 9.62-21.5 21.5-21.5s21.5 9.62 21.5 21.5v322.74c-12.74-14.9-27.16-28.28-43-39.9zM580.292 266.486c0-11.88 9.62-21.5 21.5-21.5s21.5 9.62 21.5 21.5v170.080c-13.68-6.74-28.060-12.28-43-16.48v-153.6zM488.832 411.786v-376.56c0-11.88 9.62-21.5 21.5-21.5s21.5 9.62 21.5 21.5v376.28c-6.54-0.52-13.16-0.78-19.84-0.78-7.8 0-15.54 0.36-23.16 1.060zM400.712 253.486c0-11.88 9.62-21.5 21.5-21.5s21.5 9.62 21.5 21.5v166.6c-14.94 4.2-29.32 9.72-43 16.46v-183.060zM319.832 499.406v-322.72c0-11.88 9.62-21.5 21.5-21.5s21.5 9.62 21.5 21.5v282.84c-15.82 11.6-30.26 24.98-43 39.88zM618.072 482.566c15.8 9.28 30.28 20.58 43.1 33.54 15.9 16.080 29.24 34.7 39.3 55.22 13.72 27.86 21.42 59.2 21.42 92.3 0 115.72-94.16 209.88-209.9 209.88s-209.88-94.16-209.88-209.88c0-30 6.32-58.54 17.72-84.38 10.4-23.64 25.060-45.020 43-63.14 15.76-15.92 34.020-29.36 54.18-39.62 7.72-3.96 15.74-7.42 23.98-10.38 15.1-5.46 31-9.22 47.48-11.060v252.6l-97.58-97.58c-7.66-7.66-19.64-8.34-28.060-2.040-0.82 0.62-1.62 1.3-2.36 2.040-8.38 8.4-8.38 22.020 0 30.4l134.3 134.28c0.48 0.48 1 0.96 1.54 1.4 0 0 0.020 0 0.020 0.020 0.52 0.44 1.080 0.86 1.64 1.22 0.3 0.2 0.58 0.38 0.88 0.56 0.28 0.18 0.58 0.34 0.88 0.5 0.62 0.34 1.24 0.64 1.88 0.92 1.28 0.54 2.64 0.96 4.040 1.24 0.26 0.060 0.5 0.1 0.76 0.14 0.020 0.020 0.060 0.020 0.080 0.020 0.1 0.020 0.22 0.040 0.36 0.060 0.66 0.080 1.32 0.16 2 0.2 0.36 0.020 0.74 0.020 1.12 0.020h0.16c0.54 0 1.080-0.040 1.62-0.080 0.1-0.020 0.22-0.020 0.32-0.040 0.080 0.020 0.14 0 0.22-0.020 0.68-0.060 1.34-0.16 2-0.3 0.7-0.14 1.38-0.32 2.040-0.52 0.4-0.12 0.78-0.24 1.16-0.4 0.2-0.060 0.4-0.14 0.58-0.22 0.4-0.16 0.8-0.34 1.2-0.54 2.52-1.2 4.76-2.88 6.62-4.92l131.38-133.66c8.32-8.48 8.2-22.080-0.26-30.4-4.18-4.12-9.64-6.18-15.080-6.18-5.56 0-11.12 2.16-15.32 6.44l-95.14 96.78v-252.34c0.12-0.020 0.24 0 0.36 0.020 16.8 1.58 33.040 5.14 48.46 10.48 13.24 4.56 25.88 10.42 37.78 17.42z" />
<glyph unicode="&#xe918;" glyph-name="badge-check" d="M993.232 440.176c0 67.952-37.12 128.4-95.2 159.376 19.152 62.976 2.656 131.984-45.392 180.016-48.048 48.048-117.024 64.544-180.016 45.376-30.992 58.080-91.44 95.216-159.392 95.216s-128.4-37.136-159.392-95.216c-62.976 19.184-131.984 2.656-180.016-45.376s-64.544-117.040-45.392-180.016c-58.080-30.992-95.2-91.44-95.2-159.376s37.12-128.4 95.2-159.392c-19.152-62.976-2.656-131.968 45.392-180.016s117.024-64.544 180.016-45.376c30.992-58.080 91.44-95.2 159.392-95.2s128.4 37.12 159.392 95.2c63.008-19.2 132-2.656 180.016 45.376 48.048 48.048 64.544 117.056 45.392 180.016 58.080 30.992 95.2 91.44 95.2 159.392zM847.024 328.56c-9.088-2.816-16.448-9.536-20.096-18.336-3.648-8.784-3.184-18.736 1.248-27.168 24-45.536 15.648-100.608-20.8-137.056-36.432-36.416-91.552-44.8-137.040-20.784-8.416 4.448-18.368 4.928-27.168 1.248-8.784-3.648-15.504-11.008-18.32-20.096-15.232-49.168-60.096-82.208-111.632-82.208s-96.384 33.040-111.632 82.208c-2.816 9.088-9.536 16.448-18.32 20.096-3.936 1.632-8.096 2.432-12.256 2.432-5.136 0-10.272-1.232-14.928-3.68-45.536-24-100.592-15.648-137.040 20.784-36.432 36.448-44.8 91.52-20.8 137.056 4.432 8.416 4.896 18.368 1.248 27.168s-11.008 15.504-20.096 18.32c-49.168 15.248-82.208 60.096-82.208 111.632s33.024 96.384 82.208 111.616c9.088 2.816 16.448 9.536 20.096 18.32 3.648 8.8 3.184 18.752-1.248 27.168-24 45.536-15.648 100.608 20.8 137.056 36.432 36.416 91.536 44.8 137.040 20.784 8.4-4.416 18.336-4.896 27.168-1.248 8.784 3.648 15.504 11.008 18.32 20.096 15.232 49.168 60.096 82.208 111.632 82.208s96.384-33.040 111.632-82.208c2.816-9.088 9.536-16.448 18.32-20.096 8.816-3.648 18.768-3.184 27.168 1.248 45.536 23.984 100.608 15.648 137.040-20.784 36.432-36.448 44.8-91.52 20.8-137.056-4.432-8.416-4.896-18.368-1.248-27.168 3.648-8.784 11.008-15.504 20.096-18.32 49.168-15.232 82.208-60.080 82.208-111.616s-33.024-96.384-82.208-111.616zM649.344 562.832l-186.176-178.368-86.576 79.28c-13.040 11.952-33.264 11.024-45.2-2s-11.040-33.28 1.984-45.216l108.688-99.52c6.128-5.6 13.856-8.4 21.616-8.4 7.984 0 15.952 2.976 22.144 8.896l207.808 199.104c12.768 12.224 13.184 32.48 0.976 45.248-12.224 12.752-32.48 13.184-45.248 0.976z" />
<glyph unicode="&#xe919;" glyph-name="badge-dollar" d="M992 448c0 67.952-37.12 128.4-95.2 159.392 19.152 62.976 2.656 131.968-45.392 180.016s-117.008 64.528-180.016 45.376c-30.992 58.080-91.44 95.216-159.392 95.216s-128.4-37.136-159.392-95.2c-62.944 19.136-131.968 2.656-180.016-45.392s-64.544-117.040-45.392-180.016c-58.080-30.992-95.2-91.44-95.2-159.392s37.12-128.4 95.2-159.392c-19.152-62.976-2.656-131.968 45.392-180.016s117.024-64.528 180.016-45.392c30.992-58.064 91.44-95.2 159.392-95.2s128.4 37.136 159.392 95.216c63.008-19.2 131.984-2.672 180.016 45.376 48.048 48.048 64.544 117.040 45.392 180.016 58.080 30.992 95.2 91.44 95.2 159.392zM845.792 336.384c-9.088-2.816-16.448-9.536-20.096-18.336-3.648-8.784-3.184-18.736 1.248-27.168 24-45.536 15.648-100.608-20.8-137.040-36.432-36.416-91.536-44.8-137.040-20.784-8.432 4.448-18.368 4.912-27.168 1.248-8.784-3.648-15.504-11.008-18.32-20.096-15.232-49.168-60.096-82.208-111.632-82.208s-96.384 33.040-111.632 82.208c-2.816 9.088-9.536 16.448-18.32 20.096-3.936 1.632-8.096 2.432-12.256 2.432-5.136 0-10.272-1.232-14.928-3.68-45.52-24-100.592-15.648-137.040 20.8-36.432 36.432-44.8 91.52-20.8 137.040 4.432 8.416 4.896 18.368 1.248 27.168s-11.008 15.504-20.096 18.336c-49.168 15.232-82.208 60.080-82.208 111.616s33.024 96.384 82.208 111.616c9.088 2.816 16.448 9.536 20.096 18.336 3.648 8.784 3.184 18.736-1.248 27.168-24 45.536-15.648 100.608 20.8 137.040 36.432 36.432 91.52 44.784 137.040 20.8 8.4-4.432 18.336-4.896 27.168-1.248 8.784 3.648 15.504 11.008 18.32 20.096 15.232 49.168 60.096 82.208 111.632 82.208s96.384-33.040 111.632-82.208c2.816-9.088 9.536-16.448 18.32-20.096 8.816-3.664 18.752-3.184 27.168 1.248 45.536 23.984 100.592 15.664 137.040-20.784 36.432-36.432 44.8-91.52 20.8-137.040-4.432-8.416-4.896-18.368-1.248-27.168s11.008-15.504 20.096-18.336c49.168-15.232 82.208-60.080 82.208-111.616s-33.024-96.384-82.208-111.616zM531.776 480.624c-37.76 18.144-49.52 26.672-49.52 44.688 0 4.976 0 20.128 20.864 28.688 19.2 7.888 45.088 4.704 56.528-6.928 12.4-12.592 32.688-12.736 45.248-0.336 12.592 12.4 12.752 32.672 0.336 45.264-13.952 14.144-33.136 23.408-53.984 27.632v27.472c0 17.664-14.336 32-32 32s-32-14.336-32-32v-31.152c-2.8-0.912-5.664-1.616-8.4-2.736-37.936-15.552-60.592-48.416-60.592-87.904 0-61.136 49.584-84.976 85.776-102.368 38.656-18.576 54.384-28.592 54.384-53.152 0-17.728-23.696-32.128-39.168-32.128-22.992 0-56 15.808-62.928 22.528-12.416 12.592-32.656 12.72-45.232 0.336-12.592-12.4-12.752-32.656-0.336-45.248 14.288-14.496 45.552-30.208 76.496-37.472v-28.896c0-17.664 14.336-32 32-32s32 14.336 32 32v30.432c37.824 12.992 71.168 47.424 71.168 90.448 0 67.264-52.4 92.448-90.656 110.848z" />
<glyph unicode="&#xe91a;" glyph-name="badge-percent" d="M989.28 442.432c0 67.952-37.136 128.4-95.2 159.392 19.136 62.992 2.656 131.984-45.392 180.016-48.064 48.064-117.072 64.544-180.032 45.376-30.976 58.064-91.424 95.2-159.376 95.2s-128.4-37.12-159.392-95.2c-62.976 19.168-131.984 2.656-180.016-45.376-48.048-48.048-64.544-117.040-45.392-180.016-58.080-30.992-95.2-91.44-95.2-159.392s37.12-128.4 95.2-159.376c-19.152-62.976-2.656-131.984 45.392-180.016 48.048-48.048 117.024-64.528 180.016-45.376 30.992-58.080 91.44-95.216 159.392-95.216s128.4 37.136 159.376 95.2c62.976-19.152 131.984-2.672 180.032 45.392 48.048 48.032 64.528 117.040 45.392 180.016 58.064 30.992 95.2 91.44 95.2 159.376zM843.072 330.816c-9.088-2.816-16.448-9.52-20.096-18.32s-3.184-18.736 1.248-27.168c23.984-45.552 15.632-100.624-20.8-137.056s-91.536-44.8-137.056-20.784c-8.416 4.432-18.352 4.896-27.168 1.248-8.8-3.648-15.504-11.008-18.32-20.096-15.232-49.168-60.080-82.208-111.616-82.208s-96.384 33.040-111.632 82.208c-2.816 9.088-9.536 16.448-18.32 20.096-3.936 1.632-8.096 2.432-12.256 2.432-5.136 0-10.272-1.232-14.928-3.68-45.504-24-100.576-15.664-137.040 20.784-36.432 36.448-44.8 91.52-20.8 137.056 4.432 8.416 4.896 18.368 1.248 27.168s-11.008 15.504-20.096 18.336c-49.168 15.232-82.208 60.080-82.208 111.616s33.024 96.384 82.208 111.616c9.088 2.816 16.448 9.536 20.096 18.336 3.648 8.784 3.184 18.736-1.248 27.168-24 45.536-15.648 100.608 20.8 137.056 36.432 36.432 91.536 44.784 137.040 20.784 8.416-4.432 18.336-4.88 27.168-1.248 8.784 3.648 15.504 11.008 18.32 20.096 15.232 49.168 60.096 82.208 111.632 82.208s96.368-33.024 111.616-82.192c2.816-9.088 9.52-16.464 18.32-20.096 8.832-3.664 18.768-3.2 27.168 1.248 45.584 24 100.64 15.632 137.056-20.784 36.416-36.432 44.784-91.52 20.8-137.056-4.432-8.416-4.896-18.368-1.248-27.168s11.008-15.504 20.096-18.32c49.168-15.248 82.208-60.096 82.208-111.632s-33.024-96.368-82.208-111.616zM405.552 493.040c41.984 0 76.032 34.032 76.032 76.032s-34.032 76.032-76.032 76.032-76.032-34.032-76.032-76.032 34.032-76.032 76.032-76.032zM405.552 581.088c6.64 0 12.032-5.392 12.032-12.032s-5.392-12.032-12.032-12.032-12.032 5.392-12.032 12.032 5.392 12.032 12.032 12.032zM612.992 391.84c-41.984 0-76.032-34.032-76.032-76.032s34.032-76.032 76.032-76.032 76.032 34.032 76.032 76.032-34.032 76.032-76.032 76.032zM612.992 303.792c-6.624 0-12.032 5.392-12.032 12.032s5.392 12.032 12.032 12.032 12.032-5.392 12.032-12.032-5.392-12.032-12.032-12.032zM649.584 628.8l-327.488-327.472c-12.496-12.496-12.496-32.752 0-45.248 6.256-6.256 14.432-9.376 22.624-9.376s16.368 3.12 22.624 9.376l327.488 327.472c12.496 12.496 12.496 32.752 0 45.248s-32.752 12.496-45.248 0z" />
<glyph unicode="&#xe91b;" glyph-name="banner-ad" d="M901.744 928h-768c-52.944 0-96-43.056-96-96v-768c0-52.944 43.056-96 96-96h768c52.944 0 96 43.056 96 96v768c0 52.944-43.056 96-96 96zM101.744 736h832v-128h-832v128zM101.744 544h832v-320h-832v320zM133.744 864h768c17.936 0 32-14.064 32-32v-32h-832v32c0 17.936 14.064 32 32 32zM293.744 32h-64v32h64v-32zM549.744 32h-64v32h64v-32zM805.744 32h-64v32h64v-32zM901.744 32h-32v64c0 17.664-14.336 32-32 32h-128c-17.664 0-32-14.336-32-32v-64h-64v64c0 17.664-14.336 32-32 32h-128c-17.664 0-32-14.336-32-32v-64h-64v64c0 17.664-14.336 32-32 32h-128c-17.664 0-32-14.336-32-32v-64h-32c-17.936 0-32 14.064-32 32v96h832v-96c0-17.936-14.064-32-32-32zM583.744 704h-4.016c-17.664 0-32-14.336-32-32s14.336-32 32-32h4.016c17.664 0 32 14.336 32 32s-14.336 32-32 32zM455.744 704h-4.016c-17.664 0-32-14.336-32-32s14.336-32 32-32h4.016c17.664 0 32 14.336 32 32s-14.336 32-32 32zM327.744 704h-4.016c-17.664 0-32-14.336-32-32s14.336-32 32-32h4.016c17.664 0 32 14.336 32 32s-14.336 32-32 32zM711.744 704h-4.016c-17.664 0-32-14.336-32-32s14.336-32 32-32h4.016c17.664 0 32 14.336 32 32s-14.336 32-32 32zM645.744 512h-128c-17.664 0-32-14.336-32-32v-192c0-17.664 14.336-32 32-32s32 14.336 32 32v32h64v-32c0-17.664 14.336-32 32-32s32 14.336 32 32v192c0 17.664-14.336 32-32 32zM549.744 384v64h64v-64h-64zM805.744 512h-64c-17.664 0-32-14.336-32-32v-192c0-17.664 14.336-32 32-32h64c52.944 0 96 43.056 96 96v64c0 52.944-43.056 96-96 96zM837.744 352c0-17.648-14.352-32-32-32h-32v128h32c17.648 0 32-14.352 32-32v-64zM165.744 416h32c17.664 0 32 14.336 32 32s-14.336 32-32 32h-32c-17.664 0-32-14.336-32-32s14.336-32 32-32zM389.744 352h-224c-17.664 0-32-14.336-32-32s14.336-32 32-32h224c17.664 0 32 14.336 32 32s-14.336 32-32 32zM293.744 416h8.016c17.664 0 32 14.336 32 32s-14.336 32-32 32h-8.016c-17.664 0-32-14.336-32-32s14.336-32 32-32z" />
<glyph unicode="&#xe91c;" glyph-name="banner-discount" d="M896 928h-768c-35.296 0-64-28.704-64-64v-832c0-35.296 28.704-64 64-64h768c35.296 0 64 28.704 64 64v832c0 35.296-28.704 64-64 64zM896 160h-156.080c-312.56 72.48-396.528 270.608-418.112 352h94.192c17.664 0 32 14.336 32 32v228.016c0 17.664-14.336 32-32 32h-101.152v59.984h581.152v-704zM384 740.016v-164.016h-160v164.016h160zM250.848 864v-59.984h-58.848c-17.664 0-32-14.336-32-32v-228.016c0-17.664 14.336-32 32-32h64.496c16.256-68.464 77.68-243.664 292.992-352h-421.488v704h122.848zM128 32v64h768v-64h-768zM586.848 539.712c-10.496-6.064-16.672-17.536-15.936-29.632l14.976-249.984c0.752-12.672 8.928-23.68 20.832-28.096 3.616-1.344 7.376-2 11.104-2 8.496 0 16.848 3.408 22.992 9.728l51.552 53.232 10.784-18.656c5.936-10.272 16.688-15.984 27.728-15.984 5.44 0 10.944 1.376 15.984 4.304 15.296 8.848 20.528 28.416 11.68 43.712l-10.768 18.624 71.808 18.016c12.32 3.072 21.632 13.136 23.76 25.664 2.128 12.496-3.328 25.088-13.92 32.080l-208.976 137.984c-10.112 6.688-23.104 7.056-33.632 1.008zM733.52 387.376l-42.448-10.656c-0.256-0.064-0.48-0.224-0.736-0.288-2.512-0.704-4.992-1.616-7.36-2.976-0.064-0.032-0.128-0.064-0.192-0.096-2.352-1.36-4.384-3.056-6.24-4.88-0.208-0.208-0.48-0.32-0.688-0.528l-30.448-31.44-6.8 113.52 94.912-62.656zM493.52 717.248c6.256-6.16 14.368-9.232 22.496-9.232 8.256 0 16.496 3.168 22.768 9.504 12.416 12.576 12.304 32.848-0.272 45.264l-4.016 3.968c-12.608 12.4-32.848 12.304-45.264-0.272s-12.304-32.848 0.272-45.264l4.016-3.968zM698.688 602.592c-12.48 12.544-32.768 12.544-45.248 0.096-12.528-12.464-12.56-32.736-0.096-45.248l4-4.016c6.256-6.288 14.464-9.424 22.672-9.424s16.336 3.104 22.576 9.328c12.528 12.464 12.56 32.736 0.096 45.248l-4 4.016zM493.392 557.392c6.256-6.256 14.432-9.376 22.624-9.376s16.368 3.12 22.624 9.376l160 160c12.496 12.496 12.496 32.752 0 45.248s-32.752 12.496-45.248 0l-160-160c-12.496-12.496-12.496-32.752 0-45.248zM192 224h128c17.664 0 32 14.336 32 32s-14.336 32-32 32h-128c-17.664 0-32-14.336-32-32s14.336-32 32-32zM192 320h32c17.664 0 32 14.336 32 32s-14.336 32-32 32h-32c-17.664 0-32-14.336-32-32s14.336-32 32-32z" />
<glyph unicode="&#xe91d;" glyph-name="bar-chart" d="M285.066 425.61h-71.734c-47.146 0-85.5-38.356-85.5-85.5v-170.254c0-11.876 9.626-21.5 21.5-21.5h199.734c11.876 0 21.5 9.624 21.5 21.5v170.254c0 47.144-38.354 85.5-85.5 85.5zM327.566 191.356h-156.734v148.754c0 23.434 19.066 42.5 42.5 42.5h71.734c23.436 0 42.5-19.066 42.5-42.5v-148.754zM547.868 659.866h-71.734c-47.144 0-85.5-38.356-85.5-85.5v-426.010h242.734v426.010c0 47.144-38.356 85.5-85.5 85.5zM810.666 830.976h-71.734c-47.146 0-85.5-38.356-85.5-85.5v-575.62c0-11.876 9.626-21.5 21.5-21.5h199.734c11.876 0 21.5 9.624 21.5 21.5v575.62c0 47.144-38.354 85.5-85.5 85.5zM853.166 191.356h-156.734v554.12c0 23.434 19.066 42.5 42.5 42.5h71.734c23.436 0 42.5-19.066 42.5-42.5v-554.12zM871.298 67.194h-721.964c-11.874 0-21.5 9.624-21.5 21.5s9.626 21.5 21.5 21.5h721.964c11.874 0 21.5-9.624 21.5-21.5s-9.626-21.5-21.5-21.5z" />
<glyph unicode="&#xe91e;" glyph-name="bar-progress" d="M932.48 896h-840.96c-32.816 0-59.52-26.704-59.52-59.52v-136.976c0-32.816 26.704-59.52 59.52-59.52h840.976c32.816 0 59.52 26.704 59.52 59.52v136.976c0 32.816-26.704 59.52-59.52 59.52zM928 704h-832v128h832v-128zM192 736h32c17.664 0 32 14.336 32 32s-14.336 32-32 32h-32c-17.664 0-32-14.336-32-32s14.336-32 32-32zM932.48 576h-840.96c-32.816 0-59.52-26.704-59.52-59.52v-136.976c0-32.816 26.704-59.52 59.52-59.52h840.976c32.816 0 59.52 26.704 59.52 59.52v136.976c0 32.816-26.704 59.52-59.52 59.52zM928 384h-832v128h832v-128zM932.48 256h-840.96c-32.816 0-59.52-26.704-59.52-59.52v-136.976c0-32.816 26.704-59.52 59.52-59.52h840.976c32.816 0 59.52 26.704 59.52 59.52v136.976c0 32.816-26.704 59.52-59.52 59.52zM928 64h-832v128h832v-128zM192 416h128c17.664 0 32 14.336 32 32s-14.336 32-32 32h-128c-17.664 0-32-14.336-32-32s14.336-32 32-32zM192 96h224c17.664 0 32 14.336 32 32s-14.336 32-32 32h-224c-17.664 0-32-14.336-32-32s14.336-32 32-32z" />
<glyph unicode="&#xe91f;" glyph-name="bars" d="M64 775.952h895.392c17.664 0 32 14.336 32 32s-14.336 32-32 32h-895.392c-17.664 0-32-14.336-32-32s14.336-32 32-32zM959.392 480h-894.896c-17.664 0-32-14.336-32-32s14.336-32 32-32h894.896c17.664 0 32 14.336 32 32s-14.336 32-32 32zM960 120.048h-895.504c-17.664 0-32-14.336-32-32s14.336-32 32-32h895.504c17.664 0 32 14.336 32 32s-14.336 32-32 32z" />
<glyph unicode="&#xe920;" glyph-name="bar-sort-left" d="M64 768h463.104c17.664 0 32 14.336 32 32s-14.336 32-32 32h-463.104c-17.664 0-32-14.336-32-32s14.336-32 32-32zM545.392 128h-473.744c-17.664 0-32-14.336-32-32s14.336-32 32-32h473.744c17.664 0 32 14.336 32 32s-14.336 32-32 32zM960 479.168h-13.216c-2.272 0.512-4.624 0.832-7.040 0.832h-615.264c-2.432 0-4.768-0.32-7.040-0.832h-253.44c-17.664 0-32-14.336-32-32s14.336-32 32-32h896c17.664 0 32 14.336 32 32s-14.336 32-32 32z" />
<glyph unicode="&#xe921;" glyph-name="bar-sort-right" d="M706.56 416.832h253.44c17.664 0 32 14.336 32 32s-14.336 32-32 32h-896c-17.664 0-32-14.336-32-32s14.336-32 32-32h13.216c2.272-0.512 4.624-0.832 7.040-0.832h615.248c2.432 0 4.768 0.32 7.040 0.832zM960 128h-463.104c-17.664 0-32-14.336-32-32s14.336-32 32-32h463.104c17.664 0 32 14.336 32 32s-14.336 32-32 32zM478.608 768h473.744c17.664 0 32 14.336 32 32s-14.336 32-32 32h-473.744c-17.664 0-32-14.336-32-32s14.336-32 32-32z" />
<glyph unicode="&#xe922;" glyph-name="battery" d="M470.816 672h14.336v-14.336c0-17.664 14.336-32 32-32s32 14.336 32 32v14.336h14.336c17.664 0 32 14.336 32 32s-14.336 32-32 32h-14.336v14.336c0 17.664-14.336 32-32 32s-32-14.336-32-32v-14.336h-14.336c-17.664 0-32-14.336-32-32s14.336-32 32-32zM563.504 160h-92.688c-17.664 0-32-14.336-32-32s14.336-32 32-32h92.688c17.664 0 32 14.336 32 32s-14.336 32-32 32zM620.992 456.832h-32v96c0 17.664-14.336 32-32 32h-96c-13.088 0-24.848-7.968-29.712-20.112l-64-160c-3.952-9.856-2.736-21.024 3.216-29.824s15.888-14.064 26.496-14.064h32v-128c0-17.664 14.336-32 32-32h64c12.112 0 23.2 6.848 28.624 17.68l96 192c4.96 9.92 4.432 21.696-1.408 31.136-5.824 9.424-16.128 15.168-27.216 15.168zM505.216 264.832h-12.224v128c0 17.664-14.336 32-32 32h-16.736l38.4 96h42.336v-96c0-17.664 14.336-32 32-32h12.224l-64-128zM805.168 32h-20.848c13.12 20.912 20.848 45.552 20.848 72.016v623.968c0 75.008-61.024 136.016-136.016 136.016h-10.72l-54.624 54.624c-6 6-14.144 9.376-22.624 9.376h-128c-8.48 0-16.624-3.376-22.624-9.376l-54.624-54.624h-10.72c-75.008 0-136.016-61.008-136.016-136.016v-623.968c0-26.464 7.712-51.104 20.848-72.016h-20.848c-17.664 0-32-14.336-32-32s14.336-32 32-32h576c17.664 0 32 14.336 32 32s-14.336 32-32 32zM365.184 32c-36.96 0-67.168 28.112-71.216 64h45.568c17.664 0 32 14.336 32 32s-14.336 32-32 32h-46.384v512h46.384c17.664 0 32 14.336 32 32s-14.336 32-32 32h-45.568c4.048 35.888 34.24 64 71.216 64h303.952c36.96 0 67.168-28.112 71.216-64h-46.368c-17.664 0-32-14.336-32-32s14.336-32 32-32h47.168v-512h-47.168c-17.664 0-32-14.336-32-32s14.336-32 32-32h46.368c-4.048-35.888-34.24-64-71.216-64h-303.952z" />
<glyph unicode="&#xe923;" glyph-name="blob-shape" d="M125.84 835.536c43.344 9.024 87.536 5.232 127.872-10.848 3.888-1.568 7.904-2.304 11.84-2.304 12.72 0 24.736 7.648 29.728 20.16 6.544 16.416-1.456 35.024-17.856 41.584-52.064 20.784-108.992 25.632-164.624 14.064-17.312-3.6-28.4-20.544-24.816-37.84s20.544-28.352 37.84-24.816zM973.536 147.664c-12.512 12.48-32.768 12.496-45.248-0.032-18.72-18.752-39.408-35.312-61.296-49.136-50.16-31.2-100.304-52.432-149.024-63.088-17.264-3.776-28.192-20.848-24.416-38.112 3.28-14.96 16.528-25.152 31.232-25.152 2.272 0 4.56 0.24 6.88 0.736 55.872 12.24 112.784 36.224 169.344 71.392 26.096 16.48 50.512 36.048 72.576 58.16 12.48 12.496 12.464 32.768-0.032 45.248zM958.88 303.248c19.904 55.408 29.312 143.84 2.944 207.072-73.648 176.832-275.168 169.088-335.264 162.416-91.136-10.192-144.688 7.52-200.512 29.936l-163.488 65.376c-64.448 25.632-138.048 10.176-187.536-39.296-49.936-49.92-62.592-125.232-31.536-187.376l26.688-53.36c16.176-32.32 17.28-69.888 3.056-103.072l-37.376-87.008c-26.736-62.56-11.856-132.912 38.816-183.568 34.080-34.080 76.96-52 120.32-52 21.312 0 42.752 4.336 63.296 13.184l83.632 35.696c12.576 5.408 25.76 9.536 39.184 12.272v0c27.936 5.68 56.32 5.408 84.288-0.8l130.224-28.848c76.064-16.896 149.744 0.4 239.584 56.496 3.664 2.4 90.224 59.824 123.664 152.848zM609.504 156.384l-130.24 28.848c-36.784 8.16-74.096 8.496-110.912 1.024-17.712-3.6-35.104-9.040-51.648-16.16l-83.648-35.712c-37.888-16.336-81.264-6.64-113.152 25.248-31.776 31.792-41.456 75.152-25.232 113.104l37.376 86.976c21.664 50.56 19.952 107.76-4.64 156.944l-26.688 53.36c-18.736 37.472-10.896 83.072 19.536 113.504 21.376 21.376 49.776 32.768 78.544 32.768 13.488 0 27.056-2.512 40.016-7.664l163.392-65.344c59.184-23.744 125.824-45.92 231.392-34.128 48.896 5.408 212.576 12.352 269.12-123.44 18.736-44.912 11.888-116.368-4.080-160.8-26.080-72.464-97.824-120.496-97.92-120.576-73.856-46.144-132.752-60.992-191.232-47.936zM713.488 730.48c37.92 0 153.328 0 203.504-50.144 6.128-6.112 14.32-9.36 22.624-9.36 4.128 0 8.304 0.8 12.256 2.432 11.952 4.96 19.744 16.624 19.744 29.568 0 148.64-84.432 220.896-258.128 220.896-53.328 0-96.72-43.36-96.72-96.672s43.392-96.72 96.72-96.72zM713.488 859.872c108.064 0 165.968-27.92 185.968-93.632-59.024 24.592-130.816 28.24-185.968 28.24-18.048 0-32.72 14.672-32.72 32.72s14.672 32.672 32.72 32.672z" />
<glyph unicode="&#xe924;" glyph-name="blockquote" d="M593.306 513.354h63.19c7.296 0 14.094 3.7 18.054 9.826l70.24 108.644c5.060 7.436 9.51 14.348 13.35 21.008 8.090-13.878 19.434-23.904 31.078-30.496l-50.308-75.57c-4.392-6.598-4.798-15.078-1.054-22.064 3.742-6.988 11.026-11.35 18.952-11.35h63.19c7.296 0 14.094 3.7 18.054 9.826l70.238 108.64c19.656 28.884 30.306 49.966 30.306 78.39 0 51.73-38.372 89.276-91.24 89.276-27.436 0-52.744-9.792-71.262-27.574-4.9-4.706-9.228-9.902-12.972-15.498-15.296 26.406-44.058 43.072-79.268 43.072-27.436 0-52.744-9.792-71.262-27.574-19.18-18.416-29.744-44.27-29.744-72.794 0-39.698 20.9-64.346 42.866-76.78l-50.308-75.57c-4.392-6.598-4.798-15.078-1.054-22.064 3.742-6.988 11.026-11.35 18.952-11.35zM847.358 756.488c29.304 0 48.24-18.164 48.24-46.276 0-14.276-3.32-25.518-22.992-54.398-0.098-0.142-0.194-0.286-0.286-0.43l-64.024-99.030h-11.346l43.714 65.668c4.392 6.598 4.822 15.078 1.080 22.064-3.744 6.988-11.002 11.35-18.93 11.35-0.334 0.010-33.46 4.852-33.46 43.682 0 33.778 23.852 57.37 58.004 57.37zM683.856 756.488c29.304 0 48.24-18.164 48.24-46.276 0-14.276-3.32-25.518-22.992-54.398-0.098-0.142-0.192-0.286-0.286-0.43l-64.024-99.030h-11.346l43.714 65.668c4.392 6.598 4.822 15.078 1.080 22.064-3.744 6.988-11.002 11.35-18.93 11.35-0.334 0.010-33.46 4.852-33.46 43.682 0 33.778 23.852 57.37 58.004 57.37zM917.098 556.354c-11.876 0-21.5-9.624-21.5-21.5v-328.706l-76.012-76.012h-658.712c-18.036 0-32.708 14.672-32.708 32.708v433.306c0 18.036 14.672 32.708 32.708 32.708h374.668c11.874 0 21.5 9.624 21.5 21.5s-9.626 21.5-21.5 21.5h-374.668c-41.746 0-75.708-33.962-75.708-75.708v-433.306c0-41.744 33.962-75.708 75.708-75.708h702.016c41.746 0 75.708 33.962 75.708 75.708v372.010c0 11.876-9.626 21.5-21.5 21.5zM259.064 492.356h229.864c25.738 0 46.604 20.21 46.604 45.144s-20.866 45.144-46.604 45.144h-229.864c-25.738 0-46.604-20.212-46.604-45.144s20.866-45.144 46.604-45.144zM796.748 424.642c0 11.876-9.626 21.5-21.5 21.5h-551.926c-11.876 0-21.5-9.624-21.5-21.5s9.624-21.5 21.5-21.5h551.926c11.874 0 21.5 9.624 21.5 21.5zM670.742 355.854h-447.42c-11.876 0-21.5-9.624-21.5-21.5s9.624-21.5 21.5-21.5h447.42c11.874 0 21.5 9.624 21.5 21.5s-9.626 21.5-21.5 21.5zM670.742 265.568h-447.42c-11.876 0-21.5-9.624-21.5-21.5s9.624-21.5 21.5-21.5h447.42c11.874 0 21.5 9.624 21.5 21.5s-9.626 21.5-21.5 21.5z" />
<glyph unicode="&#xe925;" glyph-name="blog" d="M992.96 751.744c0 2.352-0.288 4.624-0.768 6.816v57.12c0 52.912-43.024 95.952-95.936 95.952h-767.36c-52.912 0-95.936-43.040-95.936-95.952v-735.376c0-52.912 43.024-95.952 95.936-95.952h767.36c52.912 0 95.936 43.040 95.936 95.952v664.624c0.48 2.208 0.768 4.48 0.768 6.816zM128.896 847.648h767.36c17.904 0 31.936-14.032 31.936-31.952v-31.936h-831.232v31.936c0 17.92 14.032 31.952 31.936 31.952zM896.256 48.352h-767.36c-17.904 0-31.936 14.032-31.936 31.952v639.44h831.232v-639.44c0-17.92-14.032-31.952-31.936-31.952zM544.576 431.52v96.432c0 17.664-14.336 32-32 32h-319.728c-17.664 0-32-14.336-32-32v-287.76c0-17.664 14.336-32 32-32h319.728c17.664 0 32 14.336 32 32v191.152s0 0.128 0 0.192zM480.576 495.936v-42.24l-134.128-53.648-39.936 26.64c-10.752 7.152-24.752 7.152-35.504 0l-46.176-30.784v100.048h255.728zM224.848 272.176v46.8l63.92 42.608 78.16-52.112c14.704-9.808 34.56-5.808 44.368 8.88 7.984 11.984 6.688 27.296-1.952 37.904l71.248 28.496v-112.576h-255.728zM256.784 144.288h-63.936c-17.664 0-32-14.336-32-32s14.336-32 32-32h63.936c17.664 0 32 14.336 32 32s-14.336 32-32 32zM512.576 144.288h-159.872c-17.664 0-32-14.336-32-32s14.336-32 32-32h159.872c17.664 0 32 14.336 32 32s-14.336 32-32 32zM832.304 559.936h-191.824c-17.664 0-32-14.336-32-32v-159.872c0-17.664 14.336-32 32-32h191.824c17.664 0 32 14.336 32 32v159.872c0 17.664-14.336 32-32 32zM800.304 400.064h-127.824v95.872h127.824v-95.872zM640.464 208.176h63.936c17.664 0 32 14.336 32 32s-14.336 32-32 32h-63.936c-17.664 0-32-14.336-32-32s14.336-32 32-32zM832.304 144.288h-191.824c-17.664 0-32-14.336-32-32s14.336-32 32-32h191.824c17.664 0 32 14.336 32 32s-14.336 32-32 32zM400.672 623.824h31.968c17.664 0 32 14.336 32 32s-14.336 32-32 32h-31.968c-17.664 0-32-14.336-32-32s14.336-32 32-32zM240.8 623.824h31.984c17.664 0 32 14.336 32 32s-14.336 32-32 32h-31.984c-17.664 0-32-14.336-32-32s14.336-32 32-32zM624.496 655.824c0 17.664-14.336 32-32 32h-31.968c-17.664 0-32-14.336-32-32s14.336-32 32-32h31.968c17.664 0 32 14.336 32 32zM720.384 623.824h31.984c17.664 0 32 14.336 32 32s-14.336 32-32 32h-31.984c-17.664 0-32-14.336-32-32s14.336-32 32-32z" />
<glyph unicode="&#xe926;" glyph-name="blog-carousel" d="M800 814.336h-576c-17.664 0-32-14.336-32-32v-672c0-17.664 14.336-32 32-32h576c17.664 0 32 14.336 32 32v672c0 17.664-14.336 32-32 32zM768 142.336h-512v608h512v-608zM128 814.336h-64c-17.664 0-32-14.336-32-32s14.336-32 32-32h32v-608h-32c-17.664 0-32-14.336-32-32s14.336-32 32-32h64c17.664 0 32 14.336 32 32v672c0 17.664-14.336 32-32 32zM320 174.336h32c17.664 0 32 14.336 32 32s-14.336 32-32 32h-32c-17.664 0-32-14.336-32-32s14.336-32 32-32zM320 302.336h384c17.664 0 32 14.336 32 32s-14.336 32-32 32h-384c-17.664 0-32-14.336-32-32s14.336-32 32-32zM320 398.336h192c17.664 0 32 14.336 32 32s-14.336 32-32 32h-192c-17.664 0-32-14.336-32-32s14.336-32 32-32zM576 430.336c0-17.664 14.336-32 32-32h32c17.664 0 32 14.336 32 32s-14.336 32-32 32h-32c-17.664 0-32-14.336-32-32zM320 654.336h256c17.664 0 32 14.336 32 32s-14.336 32-32 32h-256c-17.664 0-32-14.336-32-32s14.336-32 32-32zM320 494.336h128c17.664 0 32 14.336 32 32s-14.336 32-32 32h-128c-17.664 0-32-14.336-32-32s14.336-32 32-32zM960 142.336h-32v608h32c17.664 0 32 14.336 32 32s-14.336 32-32 32h-64c-17.664 0-32-14.336-32-32v-672c0-17.664 14.336-32 32-32h64c17.664 0 32 14.336 32 32s-14.336 32-32 32zM516.016 46.336h-8.032c-17.664 0-32-14.336-32-32s14.336-32 32-32h8.032c17.664 0 32 14.336 32 32s-14.336 32-32 32zM404.016 46.336h-8.032c-17.664 0-32-14.336-32-32s14.336-32 32-32h8.032c17.664 0 32 14.336 32 32s-14.336 32-32 32zM628.016 46.336h-8.032c-17.664 0-32-14.336-32-32s14.336-32 32-32h8.032c17.664 0 32 14.336 32 32s-14.336 32-32 32z" />
<glyph unicode="&#xe927;" glyph-name="blog-post" d="M993.878 767.514c0 11.812-4.6 22.916-12.95 31.268l-56.678 56.678c-17.24 17.238-45.292 17.238-62.532 0l-225.636-225.634c-6.864-6.866-11.334-15.948-12.582-25.574l-11.2-86.296c-1.118-8.614 1.762-17.074 7.904-23.214 5.272-5.274 12.252-8.142 19.576-8.142 1.208 0 2.422 0.078 3.642 0.236l86.294 11.2c9.628 1.248 18.714 5.718 25.58 12.584l25.41 25.412s0.008 0.006 0.012 0.010l200.21 200.212c8.352 8.352 12.952 19.456 12.952 31.266zM892.122 825.052c0.238 0.238 0.55 0.356 0.862 0.356s0.624-0.118 0.86-0.356l56.678-56.678c0.098-0.098 0.356-0.356 0.356-0.862s-0.258-0.762-0.356-0.86l-10.142-10.142-58.398 58.4 10.14 10.14zM763.704 579.838l-13.996 13.996 146.268 146.27 13.998-13.996-146.27-146.27zM705.306 638.236l146.268 146.27 13.996-13.996-146.268-146.27-13.996 13.996zM724.886 541.018c-0.188-0.188-0.436-0.31-0.7-0.344l-66.702-8.658 8.656 66.698c0.036 0.27 0.156 0.514 0.346 0.706l8.412 8.412 58.4-58.4-8.414-8.412zM830.63 533.182c-11.874 0-21.5-9.624-21.5-21.5v-280.25l-64.3-64.3h-276.016v435.518h126.296c11.874 0 21.5 9.624 21.5 21.5s-9.626 21.5-21.5 21.5h-381.61v44.56c0 23.434 19.066 42.5 42.5 42.5h448c11.874 0 21.5 9.624 21.5 21.5s-9.626 21.5-21.5 21.5h-448c-47.146 0-85.5-38.356-85.5-85.5v-480.578c0-47.144 38.354-85.5 85.5-85.5h510.63c47.146 0 85.5 38.356 85.5 85.5v302.048c0 11.876-9.626 21.5-21.5 21.5zM425.816 602.65v-435.518h-29.408v334.282c0 5.67-4.598 10.268-10.268 10.268h-172.638v90.968h212.316zM246.15 690.582c0-9.54 7.734-17.274 17.274-17.274s17.274 7.734 17.274 17.274-7.734 17.274-17.274 17.274-17.274-7.734-17.274-17.274zM325.118 690.582c0-9.54 7.734-17.274 17.274-17.274s17.274 7.734 17.274 17.274-7.734 17.274-17.274 17.274-17.274-7.734-17.274-17.274zM262.726 538.278h124.916c11.874 0 21.5 9.624 21.5 21.5s-9.626 21.5-21.5 21.5h-124.916c-11.874 0-21.5-9.624-21.5-21.5s9.626-21.5 21.5-21.5z" />
<glyph unicode="&#xe928;" glyph-name="book" d="M960 224.128v608c0 52.944-43.056 96-96 96h-672c-82.416 0-128-75.696-128-128v-704c0-85.216 82.064-128 128-128h736c17.664 0 32 14.336 32 32s-14.336 32-32 32h-32v101.6c37.232 13.216 64 48.688 64 90.4zM128 96.128v64h32c17.664 0 32 14.336 32 32s-14.336 32-32 32h-32v64h64c17.664 0 32 14.336 32 32s-14.336 32-32 32h-64v192c17.664 0 32 14.336 32 32s-14.336 32-32 32v64c17.664 0 32 14.336 32 32s-14.336 32-32 32v64c0 18.224 19.040 64 64 64h32v-448c0-17.664 14.336-32 32-32s32 14.336 32 32v448h576c17.952 0 32-14.064 32-32v-608c0-17.648-14.352-32-32-32h-544c-11.232 0-21.968-2.048-32-5.6v37.6c0 17.664-14.336 32-32 32s-32-14.336-32-32v-160c0-11.232 2.032-21.968 5.6-32h-37.6c-15.424 0-64 19.248-64 64zM320 32.128c-17.952 0-32 14.064-32 32v32c0 17.936 14.048 32 32 32h512v-96h-512zM384 736.128h320c17.664 0 32 14.336 32 32s-14.336 32-32 32h-320c-17.664 0-32-14.336-32-32s14.336-32 32-32zM384 608.128h160c17.664 0 32 14.336 32 32s-14.336 32-32 32h-160c-17.664 0-32-14.336-32-32s14.336-32 32-32zM384 352.128h352c17.664 0 32 14.336 32 32v128c0 17.664-14.336 32-32 32h-352c-17.664 0-32-14.336-32-32v-128c0-17.664 14.336-32 32-32zM416 480.128h288v-64h-288v64zM384 256.128h64c17.664 0 32 14.336 32 32s-14.336 32-32 32h-64c-17.664 0-32-14.336-32-32s14.336-32 32-32zM704 288.128c0-17.664 14.336-32 32-32h64c17.664 0 32 14.336 32 32s-14.336 32-32 32h-64c-17.664 0-32-14.336-32-32z" />
<glyph unicode="&#xe929;" glyph-name="box-package" d="M384 160v64c12.944 0 24.608 7.792 29.568 19.744 4.96 11.968 2.224 25.712-6.944 34.88l-32 32c-12.496 12.496-32.752 12.496-45.248 0l-32-32c-9.152-9.152-11.888-22.912-6.944-34.88 4.96-11.952 16.624-19.744 29.568-19.744v-64h-96v64c12.944 0 24.608 7.792 29.568 19.744 4.96 11.968 2.224 25.712-6.944 34.88l-32 32c-12.496 12.496-32.752 12.496-45.248 0l-32-32c-9.152-9.152-11.888-22.912-6.944-34.88 4.96-11.952 16.624-19.744 29.568-19.744v-64c-17.664 0-32-14.336-32-32s14.336-32 32-32h224c17.664 0 32 14.336 32 32s-14.336 32-32 32zM864 160h-96c-17.664 0-32-14.336-32-32s14.336-32 32-32h96c17.664 0 32 14.336 32 32s-14.336 32-32 32zM672 160h-32c-17.664 0-32-14.336-32-32s14.336-32 32-32h32c17.664 0 32 14.336 32 32s-14.336 32-32 32zM160 384h192c17.664 0 32 14.336 32 32v32c0 17.664-14.336 32-32 32s-32-14.336-32-32h-128v96h32c17.664 0 32 14.336 32 32s-14.336 32-32 32h-64c-17.664 0-32-14.336-32-32v-160c0-17.664 14.336-32 32-32zM672 544h96c17.664 0 32 14.336 32 32s-14.336 32-32 32h-96c-17.664 0-32-14.336-32-32s14.336-32 32-32zM768 512h-32c-17.664 0-32-14.336-32-32s14.336-32 32-32h32c17.664 0 32 14.336 32 32s-14.336 32-32 32zM991.456 229.92l-6.112 32.384s-0.032 0.16-0.048 0.24l-18.16 96.352c-0.128 0.608-0.256 1.216-0.4 1.824-8.112 32.528-37.2 55.264-70.736 55.264v224c0 0.336-0.096 0.624-0.096 0.96-0.032 1.232-0.208 2.464-0.384 3.712-0.144 1.008-0.272 2.016-0.512 2.992-0.080 0.304-0.080 0.624-0.16 0.928l-54.432 195.040c-10.288 31.312-39.376 52.352-72.384 52.352h-608.032c-33.12 0-62.288-21.040-72.992-53.76l-53.84-193.664c-0.080-0.304-0.080-0.608-0.16-0.912-0.256-1.024-0.384-2.080-0.544-3.136-0.16-1.184-0.336-2.352-0.368-3.52 0-0.336-0.112-0.656-0.112-1.008v-576c0-35.296 28.704-64 64-64h829.488c36.672 0 66.512 29.84 66.512 66.512v154.976c0 0.368-0.096 0.704-0.096 1.056 0.112 2.432 0.016 4.896-0.448 7.376zM904.464 345.808l10.896-57.808h-326.816l11.056 59.056c0.432 2.336 4.112 4.944 8.384 4.944h288c3.888 0 7.296-2.512 8.464-6.192zM779.152 825.056l33.76-121.056h-209.824l-21.328 128h186.224c5.296 0 9.952-3.344 11.152-6.944zM516.896 832l21.328-128h-148.448l21.328 128h105.792zM384 640h160v-64h-18.752l-22.624 22.624c-12.496 12.496-32.752 12.496-45.248 0l-22.624-22.624h-50.752v64zM160 832h186.224l-21.328-128h-209.904l33.248 119.664c1.632 4.992 6.352 8.336 11.744 8.336zM96 635.632l1.216 4.368h222.784v-96c0-17.664 14.336-32 32-32h96c8.48 0 16.624 3.376 22.624 9.376l9.376 9.376 9.376-9.376c6-6 14.144-9.376 22.624-9.376h64c17.664 0 32 14.336 32 32v96h222.768l1.232-4.4v-219.6h-224c-35.072 0-65.056-24.016-71.296-57.12l-24.16-128.992c-0.464-2.48-0.56-4.928-0.448-7.344 0-0.368-0.096-0.704-0.096-1.072v-154.976c0-0.864 0.224-1.664 0.256-2.512h-416.256v571.648zM925.488 64h-347.136c-1.312 0-2.336 1.104-2.336 2.512v154.512l0.56 2.976h350.88l0.576-3.024v-154.464c0-1.36-1.152-2.512-2.512-2.512z" />
<glyph unicode="&#xe92a;" glyph-name="breadcumb" d="M929.072 477.564l-91.84 127.3c-11.060 15.3-29.74 24.46-49.98 24.46h-188.92c-11.060 16.98-29.64 27.060-50 27.060h-172.26c1.9-2.4 3.66-4.92 5.28-7.56l21.86-35.44h145.12c4.86 0 9.34-2.020 12.48-5.56 0.66-0.72 1.26-1.52 1.78-2.38l91.84-148.84c3.34-5.42 3.34-12.16 0-17.58l-91.84-148.84c-0.542-0.86-1.12-1.66-1.78-2.38-3.14-3.54-7.62-5.56-12.48-5.56h-145.34l-21.64-35.080c-1.72-2.78-3.58-5.42-5.56-7.92h172.54c20.36 0 38.94 10.080 50 27.060h188.92c20.24 0 38.92 9.14 49.98 24.46l91.84 127.3c13.040 18.060 13.040 41.42 0 59.5zM894.192 443.224l-91.84-127.3c-2.9-4.020-8.82-6.62-15.1-6.62h-162.34l66.12 107.14c11.94 19.34 11.94 43.4 0 62.74l-66.12 107.14h162.34c6.28 0 12.2-2.6 15.1-6.62l91.84-127.3c2.18-3 2.18-6.18 0-9.18zM442.352 468.084l-97.6 158.16c-6.96 11.3-19.28 18.16-32.54 18.16h-206.88c-11.040 0-20-8.96-20-20v-352.8c0-11.060 8.96-20 20-20h206.88c13.26 0 25.58 6.86 32.54 18.14l97.6 158.18c7.6 12.3 7.6 27.84 0 40.16z" />
<glyph unicode="&#xe92b;" glyph-name="briefcase" d="M191.68-32c-52.944 0-96 43.056-96 96v320c0 17.664 14.336 32 32 32s32-14.336 32-32v-320c0-17.936 14.048-32 32-32 17.664 0 32-14.336 32-32s-14.336-32-32-32zM831.68-32c-17.664 0-32 14.336-32 32s14.336 32 32 32c17.952 0 32 14.064 32 32v320c0 17.664 14.336 32 32 32s32-14.336 32-32v-320c0-52.944-43.056-96-96-96zM959.68-32h-128c-17.664 0-32 14.336-32 32s14.336 32 32 32h128c17.664 0 32-14.336 32-32s-14.336-32-32-32zM831.68-32h-768c-17.664 0-32 14.336-32 32s14.336 32 32 32h768c17.664 0 32-14.336 32-32s-14.336-32-32-32zM799.68 320h-32c-17.664 0-32 14.336-32 32s14.336 32 32 32h32c70.576 0 128 57.424 128 128v160c0 19.152-17.456 30.656-34.704 32.112-3.808 0.448-256.272 31.888-381.296 31.888s-377.488-31.44-380.016-31.744c-1.328-0.176-2.656-0.256-3.984-0.256-17.648 0-32-14.352-32-32v-160c0-70.576 57.424-128 128-128h32c17.664 0 32-14.336 32-32s-14.336-32-32-32h-32c-105.872 0-192 86.128-192 192v160c0 52.208 41.888 94.816 93.824 95.968 24.928 3.088 261.392 32.032 386.176 32.032 129.024 0 377.456-30.944 387.984-32.256 51.92-4.368 92.016-45.6 92.016-95.744v-160c0-105.872-86.128-192-192-192zM639.68 320h-256c-17.664 0-32 14.336-32 32s14.336 32 32 32h256c17.664 0 32-14.336 32-32s-14.336-32-32-32zM362.336 256h-85.328c-29.408 0-53.328 23.92-53.328 53.328v85.344c0 29.408 23.936 53.328 53.328 53.328h85.328c29.408 0 53.328-23.92 53.328-53.328v-85.344c0-29.408-23.936-53.328-53.328-53.328zM287.68 320h64v64h-64v-64zM362.336 384v0zM319.68 384c-17.664 0-32 14.336-32 32v340.656c0 17.664 14.336 32 32 32s32-14.336 32-32v-340.656c0-17.664-14.336-32-32-32zM319.68-32c-17.664 0-32 14.336-32 32v288c0 17.664 14.336 32 32 32s32-14.336 32-32v-288c0-17.664-14.336-32-32-32zM746.336 256h-85.328c-29.408 0-53.328 23.92-53.328 53.328v85.344c0 29.408 23.936 53.328 53.328 53.328h85.328c29.408 0 53.328-23.92 53.328-53.328v-85.344c0-29.408-23.936-53.328-53.328-53.328zM671.68 320h64v64h-64v-64zM746.336 384v0zM703.68 384c-17.664 0-32 14.336-32 32v340.656c0 17.664 14.336 32 32 32s32-14.336 32-32v-340.656c0-17.664-14.336-32-32-32zM703.68-32c-17.664 0-32 14.336-32 32v288c0 17.664 14.336 32 32 32s32-14.336 32-32v-288c0-17.664-14.336-32-32-32zM191.68 512c-17.664 0-32 14.336-32 32v192c0 17.664 14.336 32 32 32s32-14.336 32-32v-192c0-17.664-14.336-32-32-32zM831.68 512c-17.664 0-32 14.336-32 32v192c0 17.664 14.336 32 32 32s32-14.336 32-32v-192c0-17.664-14.336-32-32-32zM319.696 736c-2.576 0-5.2 0.32-7.808 0.976-17.136 4.304-27.552 21.664-23.264 38.816l24.32 96.992c8.080 32.496 37.168 55.232 70.72 55.232h256c33.328 0 62.464-22.624 70.832-55.008l24.224-97.248c4.272-17.152-6.176-34.512-23.328-38.784-17.232-4.32-34.528 6.192-38.784 23.312l-24.144 96.992c-0.992 3.856-4.64 6.752-8.8 6.752h-256c-4.096 0-7.648-2.784-8.624-6.752l-24.336-97.024c-3.648-14.528-16.688-24.224-31.008-24.224zM607.68 480h-192c-17.664 0-32 14.336-32 32v64.128c0 35.216 28.656 63.872 63.872 63.872h128.272c35.216 0 63.872-28.656 63.872-63.872v-64.128c0-17.664-14.336-32-32-32zM447.68 544h128v32.128l-128-0.128v-32zM191.68 96h-64c-17.664 0-32 14.336-32 32s14.336 32 32 32h64c17.664 0 32-14.336 32-32s-14.336-32-32-32zM383.68 96h-96c-17.664 0-32 14.336-32 32s14.336 32 32 32h96c17.664 0 32-14.336 32-32s-14.336-32-32-32zM735.68 96h-96c-17.664 0-32 14.336-32 32s14.336 32 32 32h96c17.664 0 32-14.336 32-32s-14.336-32-32-32zM895.68 96h-64c-17.664 0-32 14.336-32 32s14.336 32 32 32h64c17.664 0 32-14.336 32-32s-14.336-32-32-32zM543.68 96h-64c-17.664 0-32 14.336-32 32s14.336 32 32 32h64c17.664 0 32-14.336 32-32s-14.336-32-32-32z" />
<glyph unicode="&#xe92c;" glyph-name="browser" d="M928 912h-832c-35.296 0-64-28.704-64-64v-800c0-35.296 28.704-64 64-64h832c35.296 0 64 28.704 64 64v800c0 35.296-28.704 64-64 64zM928 816h-360.944l-10.672 32h371.6v-32zM488.944 848l24.704-74.128c4.352-13.056 16.592-21.872 30.352-21.872h384v-64h-832v64h128c13.776 0 26 8.816 30.352 21.872l24.704 74.128h209.872zM211.6 848l-10.672-32h-104.944v32h115.6zM96 48v576h832v-576h-832zM192 368h640c17.664 0 32 14.336 32 32v128c0 17.664-14.336 32-32 32h-640c-17.664 0-32-14.336-32-32v-128c0-17.664 14.336-32 32-32zM800 432h-64v64h64v-64zM224 496h448v-64h-448v64zM352 304h-160c-17.664 0-32-14.336-32-32v-128c0-17.664 14.336-32 32-32h160c17.664 0 32 14.336 32 32v128c0 17.664-14.336 32-32 32zM320 176h-96v64h96v-64zM608 304h-160c-17.664 0-32-14.336-32-32v-128c0-17.664 14.336-32 32-32h160c17.664 0 32 14.336 32 32v128c0 17.664-14.336 32-32 32zM576 176h-96v64h96v-64zM864 304h-160c-17.664 0-32-14.336-32-32v-128c0-17.664 14.336-32 32-32h160c17.664 0 32 14.336 32 32v128c0 17.664-14.336 32-32 32zM832 176h-96v64h96v-64z" />
<glyph unicode="&#xe92d;" glyph-name="business-hours" d="M896.132 669.366c-0.020 0.4-0.040 0.8-0.1 1.18-0.040 0.38-0.1 0.78-0.16 1.16-0.060 0.48-0.16 0.94-0.28 1.42-0.080 0.3-0.16 0.6-0.24 0.9-0.1 0.38-0.22 0.76-0.34 1.12-0.14 0.38-0.28 0.76-0.42 1.12-0.16 0.36-0.32 0.72-0.48 1.080-0.7 1.5-1.58 2.88-2.58 4.16-0.22 0.28-0.46 0.56-0.7 0.84-0.24 0.26-0.48 0.54-0.74 0.78-0.6 0.64-1.24 1.22-1.92 1.78l-174.72 141.46c-3.82 3.1-8.6 4.8-13.52 4.8h-375.86c-4.92 0-9.7-1.7-13.54-4.8l-174.7-141.46c-0.68-0.56-1.34-1.14-1.92-1.78-0.26-0.24-0.5-0.52-0.74-0.78-0.24-0.28-0.48-0.56-0.7-0.84-1.020-1.28-1.88-2.66-2.58-4.16-0.16-0.36-0.32-0.72-0.48-1.080-0.14-0.36-0.28-0.74-0.42-1.12-0.12-0.36-0.24-0.74-0.34-1.12-0.080-0.3-0.16-0.6-0.24-0.9-0.12-0.48-0.22-0.94-0.28-1.42-0.060-0.38-0.12-0.78-0.16-1.16-0.060-0.38-0.080-0.78-0.1-1.18s-0.040-0.8-0.040-1.2v-80.6c0-16 13.020-29.020 29.020-29.020h38.032v-320.774c0-22.882 18.616-41.5 41.5-41.5h55.526s0-0.004 0.002-0.006c41.52-79.24 124.6-133.44 220.080-133.44s178.58 54.2 220.1 133.44c0 0 0 0.004 0.002 0.006h55.52c22.882 0 41.5 18.618 41.5 41.5v320.774h38.036c16 0 29.020 13.020 29.020 29.020v80.6c0 0.4-0.020 0.8-0.040 1.2zM331.692 788.166h360.62l121.64-98.5h-603.9l121.64 98.5zM708.092 601.546h-102.060v45.12h102.060v-45.12zM563.032 601.546h-102.060v45.12h102.060v-45.12zM417.972 601.546h-102.080v45.12h102.080v-45.12zM170.832 646.666h102.060v-45.12h-102.060v45.12zM237.884 558.546h49.008c2.6 0 5.12 0.34 7.52 1 2.38-0.66 4.9-1 7.5-1h130.040c2.6 0 5.12 0.34 7.52 1 2.4-0.66 4.9-1 7.5-1h43.76c-126.98-10.82-227.040-117.66-227.040-247.4 0-24.978 3.7-49.116 10.618-71.874h-36.426v319.274zM533.492 106.946c-7.060-0.74-14.24-1.12-21.5-1.12s-14.44 0.38-21.5 1.12c-96.060 10.040-172.64 86.62-182.68 182.7-0.74 7.060-1.12 14.24-1.12 21.5s0.38 14.44 1.12 21.5c10.040 96.060 86.62 172.64 182.68 182.68 7.060 0.74 14.24 1.12 21.5 1.12s14.44-0.38 21.5-1.12c96.080-10.040 172.66-86.62 182.7-182.68 0.44-4.080 0.74-8.22 0.92-12.38v-0.020c0.14-3.020 0.2-6.040 0.2-9.1s-0.060-6.080-0.2-9.1v-0.020c-0.18-4.16-0.48-8.3-0.92-12.38-10.040-96.080-86.62-172.66-182.7-182.7zM786.116 239.272h-36.422c6.898 22.758 10.618 46.896 10.618 71.874 0 0.36 0 0.74-0.020 1.1-0.54 129.24-100.4 235.52-227.040 246.3h43.76c2.6 0 5.12 0.34 7.52 1 2.4-0.66 4.92-1 7.52-1h130.042c2.6 0 5.12 0.34 7.52 1 2.38-0.66 4.9-1 7.5-1h49.004v-319.274zM853.172 601.546h-102.080v45.12h102.080v-45.12zM682.832 332.646h13.54c-9.82 85.34-77.54 153.040-162.88 162.86v-10.14c0-11.88-9.62-21.5-21.5-21.5s-21.5 9.62-21.5 21.5v10.14c-85.34-9.82-153.040-77.52-162.86-162.86h10.14c11.88 0 21.5-9.64 21.5-21.5s-9.62-21.5-21.5-21.5h-10.14c9.82-85.34 77.52-153.060 162.86-162.88v10.14c0 11.88 9.64 21.5 21.5 21.5s21.5-9.62 21.5-21.5v-10.14c85.34 9.82 153.060 77.54 162.88 162.88h-13.54c-11.88 0-21.5 9.62-21.5 21.5s9.62 21.5 21.5 21.5zM533.492 302.226l-90.7-90.7c-4.2-4.2-9.7-6.3-15.2-6.3s-11 2.1-15.2 6.3c-8.4 8.4-8.4 22.020 0 30.42l78.1 78.1v95.54c0 11.86 9.64 21.5 21.5 21.5s21.5-9.64 21.5-21.5v-113.36z" />
<glyph unicode="&#xe92e;" glyph-name="calendar" d="M893.488 880h-29.488c0 17.664-14.336 32-32 32s-32-14.336-32-32h-256c0 17.664-14.336 32-32 32s-32-14.336-32-32h-256c0 17.664-14.336 32-32 32s-32-14.336-32-32h-29.488c-54.336 0-98.512-44.208-98.512-98.528v-698.96c0-54.336 44.192-98.512 98.512-98.512h762.976c54.336 0 98.512 44.192 98.512 98.512v698.96c0 54.336-44.192 98.528-98.512 98.528zM160 752h704c17.664 0 32-14.336 32-32s-14.336-32-32-32h-704c-17.664 0-32 14.336-32 32s14.336 32 32 32zM928 82.512c0-19.024-15.488-34.512-34.512-34.512h-762.976c-19.024 0-34.512 15.488-34.512 34.512v477.488h832v-477.488z" />
<glyph unicode="&#xe92f;" glyph-name="calendar-check" d="M893.488 880h-29.488c0 17.664-14.336 32-32 32s-32-14.336-32-32h-256c0 17.664-14.336 32-32 32s-32-14.336-32-32h-256c0 17.664-14.336 32-32 32s-32-14.336-32-32h-29.488c-54.336 0-98.512-44.192-98.512-98.512v-698.976c0-54.336 44.192-98.512 98.512-98.512h762.976c54.336 0 98.512 44.192 98.512 98.512v698.976c0 54.336-44.192 98.512-98.512 98.512zM160 752h704c17.664 0 32-14.336 32-32s-14.336-32-32-32h-704c-17.664 0-32 14.336-32 32s14.336 32 32 32zM928 82.512c0-19.024-15.488-34.512-34.512-34.512h-762.976c-19.024 0-34.512 15.488-34.512 34.512v477.488h832v-477.488zM418.704 139.648c6.128-5.616 13.856-8.4 21.616-8.4 7.984 0 15.952 2.976 22.144 8.896l300.576 288c12.768 12.24 13.184 32.48 0.976 45.248-12.224 12.752-32.48 13.168-45.248 0.976l-278.944-267.264-135.088 123.696c-13.024 11.936-33.28 11.024-45.2-1.984-11.936-13.024-11.040-33.28 1.984-45.2l157.2-143.952z" />
<glyph unicode="&#xe930;" glyph-name="calendar-days" d="M893.488 881.136h-29.488c0 17.664-14.336 32-32 32s-32-14.336-32-32h-256c0 17.664-14.336 32-32 32s-32-14.336-32-32h-256c0 17.664-14.336 32-32 32s-32-14.336-32-32h-29.488c-54.32 0-98.512-44.192-98.512-98.512v-698.976c0-54.336 44.192-98.512 98.512-98.512h762.976c54.32 0 98.512 44.192 98.512 98.512v698.976c0 54.336-44.192 98.512-98.512 98.512zM404.864 49.136c-16.672 41.6-20.032 84.016-20.656 128h95.792v-128h-75.136zM480 561.136v-128h-160v128h160zM704 561.136v-128h-160v128h160zM928 561.136v-128h-160v128h160zM352 305.136h-32v64h160v-128h-96v32c0 17.664-14.336 32-32 32zM256 433.136h-160v128h160v-128zM96 369.136h160v-64h-160v64zM320 241.136v-32c0-48.992 0-99.184 14.048-150.448-87.216 30.544-187.392 127.104-223.856 182.448h209.808zM544 177.136h160v-128h-160v128zM544 241.136v128h160v-128h-160zM768 369.136h160v-128h-160v128zM130.512 817.136h29.488c0-17.664 14.336-32 32-32s32 14.336 32 32h256c0-17.664 14.336-32 32-32s32 14.336 32 32h256c0-17.664 14.336-32 32-32s32 14.336 32 32h29.488c19.024 0 34.512-15.488 34.512-34.512v-157.488h-832v157.488c0 19.024 15.488 34.512 34.512 34.512zM130.512 49.136c-19.024 0-34.512 15.488-34.512 34.512v71.296c32.64-37.44 74.96-75.328 120.176-105.808h-85.664zM893.488 49.136h-125.488v128h160v-93.488c0-19.024-15.488-34.512-34.512-34.512zM160 689.136h704c17.664 0 32 14.336 32 32s-14.336 32-32 32h-704c-17.664 0-32-14.336-32-32s14.336-32 32-32z" />
<glyph unicode="&#xe931;" glyph-name="call-to-action" d="M896 647.136c0 52.944-43.056 96-96 96h-576c-52.944 0-96-43.056-96-96-52.944 0-96-43.056-96-96v-384c0-52.944 43.056-96 96-96h768c52.944 0 96 43.056 96 96v384c0 52.944-43.056 96-96 96zM192 647.136c0 17.648 14.352 32 32 32h576c17.648 0 32-14.352 32-32v-256c0-17.648-14.352-32-32-32h-64c-17.664 0-32-14.336-32-32s14.336-32 32-32h64c11.232 0 21.968 2.048 32 5.6v-37.6c0-17.648-14.352-32-32-32h-576c-17.648 0-32 14.352-32 32v37.6c10.032-3.568 20.768-5.6 32-5.6h164.48c17.664 0 32 14.336 32 32s-14.336 32-32 32h-164.48c-17.648 0-32 14.352-32 32v256zM928 167.136c0-17.648-14.352-32-32-32h-768c-17.648 0-32 14.352-32 32v384c0 17.648 14.352 32 32 32v-320c0-52.944 43.056-96 96-96h576c52.944 0 96 43.056 96 96v320c17.648 0 32-14.352 32-32v-384zM483.92 271.12c3.632-1.328 7.376-1.984 11.104-1.984 8.528 0 16.864 3.408 23.008 9.744l51.472 53.2 10.768-18.624c5.936-10.272 16.672-15.984 27.728-15.984 5.44 0 10.944 1.376 16 4.304 15.296 8.848 20.528 28.416 11.68 43.712l-10.752 18.576 71.84 18c12.304 3.088 21.632 13.152 23.76 25.664s-3.328 25.088-13.92 32.096l-208.992 138.016c-10.112 6.688-23.136 7.056-33.632 1.008-10.496-6.064-16.672-17.552-15.952-29.648l15.024-250c0.768-12.672 8.944-23.68 20.832-28.096zM610.672 426.48l-42.496-10.64c-0.288-0.064-0.528-0.24-0.8-0.32-2.512-0.704-5.008-1.616-7.376-2.992-0.016 0-0.048-0.016-0.064-0.032 0 0 0 0 0 0-2.384-1.376-4.432-3.088-6.32-4.928-0.208-0.192-0.464-0.32-0.656-0.512l-30.368-31.392-6.832 113.504 94.912-62.672z" />
<glyph unicode="&#xe932;" glyph-name="call-to-action-2" d="M853.332 703.192h-680.62c-47.14 0-85.5-38.36-85.5-85.5v-340.48c0-47.16 38.36-85.5 85.5-85.5h680.62c47.14 0 85.5 38.34 85.5 85.5v340.48c0 47.14-38.36 85.5-85.5 85.5zM651.932 234.712c-8.38 2.94-14.38 10.92-14.38 20.28 0 11.88 9.64 21.5 21.5 21.5h89.88c11.88 0 21.5-9.62 21.5-21.5 0-9.36-5.98-17.32-14.34-20.28h-104.16zM685.652 503.412h-22.34l71.32 127.12h22.32l-71.3-127.12zM758.932 569.852c6.36 0 12.12-1.32 17.28-3.94 5.16-2.64 9.24-6.68 12.24-12.14 3.020-5.458 4.52-12.28 4.52-20.5 0-9-1.72-16.2-5.14-21.6-3.42-5.38-7.78-9.26-13.060-11.64s-10.74-3.56-16.38-3.56c-6.36 0-12.1 1.36-17.2 4.040-5.1 2.7-9.12 6.74-12.060 12.14s-4.42 12.14-4.42 20.22c0 6.8 0.96 12.6 2.88 17.34 1.92 4.76 4.52 8.58 7.74 11.46 3.26 2.88 6.94 4.98 11.080 6.26s8.32 1.92 12.52 1.92zM748.932 452.472c11.88 0 21.5-9.62 21.5-21.5s-9.62-21.5-21.5-21.5h-89.88c-11.86 0-21.5 9.62-21.5 21.5s9.64 21.5 21.5 21.5h89.88zM658.992 366.032h199.7c11.88 0 21.5-9.62 21.5-21.5s-9.62-21.5-21.5-21.5h-199.7c-11.88 0-21.5 9.62-21.5 21.5s9.62 21.5 21.5 21.5zM632.432 617.252c1.98 4.74 4.6 8.54 7.84 11.36s6.9 4.92 10.98 6.28c4.080 1.34 8.28 2.020 12.62 2.020 6.36 0 12.080-1.36 17.18-4.060 5.1-2.68 9.16-6.74 12.16-12.14s4.5-12.2 4.5-20.42c0-8.98-1.68-16.2-5.040-21.68-3.36-5.44-7.68-9.34-12.96-11.64-5.3-2.3-10.74-3.46-16.4-3.46-6.48 0-12.24 1.32-17.28 3.94-5.040 2.64-9.060 6.68-12.060 12.14s-4.5 12.22-4.5 20.32c0 6.8 0.98 12.58 2.96 17.34zM130.212 277.212v290.738l86.222 92.244h373.16v-425.48h-416.882c-23.44 0-42.5 19.060-42.5 42.5zM513.012 598.912h-321.020c-11.86 0-21.5-9.64-21.5-21.5v-279.62c0-0.4 0.020-0.78 0.040-1.18 0.22-4.64 1.92-8.9 4.64-12.32 0.88-1.12 1.88-2.16 2.98-3.060 3.7-3.14 8.5-5.040 13.72-5.060h321.14c11.88 0 21.5 9.62 21.5 21.5v279.74c0 11.86-9.62 21.5-21.5 21.5zM414.146 555.912c-1.436-16.18-13.63-28.858-28.416-28.858s-26.98 12.678-28.416 28.858h56.834zM491.512 319.172h-257.92l77.020 108.62 72.34-65.74c4.24-3.86 9.84-5.82 15.56-5.56 5.72 0.28 11.080 2.84 14.9 7.1l78.1 86.98v-131.4zM491.512 514.932l-95.64-106.52-74.3 67.52c-4.56 4.14-10.66 6.12-16.78 5.46s-11.66-3.92-15.22-8.94l-76.080-107.28v190.74h100.752c1.606-39.906 33.048-71.858 71.484-71.858s69.878 31.952 71.484 71.858h34.298v-40.98zM751.632 516.972c2.46-1.22 4.96-1.82 7.48-1.82 2.4 0 4.74 0.54 7.020 1.64s4.14 2.88 5.58 5.4c1.44 2.5 2.16 5.94 2.16 10.3 0 4.74-0.78 8.48-2.34 11.16-1.56 2.7-3.5 4.66-5.86 5.88-2.32 1.24-4.76 1.84-7.28 1.84s-4.92-0.6-7.2-1.84c-2.28-1.22-4.12-3.080-5.5-5.58s-2.060-5.94-2.060-10.3 0.72-7.94 2.16-10.7c1.44-2.76 3.38-4.74 5.84-5.98zM656.472 583.912c2.4-1.28 4.92-1.9 7.56-1.9 2.42 0 4.74 0.56 7.040 1.72 2.28 1.16 4.14 3 5.56 5.48 1.46 2.52 2.18 5.94 2.18 10.32 0 4.62-0.78 8.28-2.34 10.98s-3.56 4.66-5.94 5.88c-2.42 1.22-4.88 1.82-7.4 1.82s-4.88-0.58-7.1-1.74c-2.22-1.16-4.060-2.98-5.5-5.48s-2.16-5.94-2.16-10.32 0.76-7.92 2.26-10.68 3.44-4.78 5.84-6.080z" />
<glyph unicode="&#xe933;" glyph-name="camera" d="M937.152 682.208l-134.256 18.64-76.816 101.792c-24.224 32.096-62.688 51.264-102.912 51.264h-247.024c-40.224 0-78.688-19.168-102.912-51.264l-77.056-102.128-110.848-17.92c-30.896-4.976-53.328-29.68-53.328-58.736v-487.936c0-32.88 28.928-59.632 64.464-59.632h831.056c35.552 0 64.464 26.752 64.464 59.632v487.328c0 29.76-23.056 54.56-54.848 58.976zM928 140.304c-0.144 0-0.304 0-0.464 0h-831.072c-0.16 0-0.32 0-0.464 0v479.184l123.072 19.888c8.144 1.328 15.456 5.728 20.432 12.32l84.816 112.4c12.192 16.16 31.568 25.808 51.824 25.808h247.024c20.256 0 39.632-9.648 51.824-25.808l84.816-112.4c5.12-6.784 12.736-11.264 21.152-12.416l147.040-20.64v-478.336zM512 684.976c-137.888 0-250.064-112.176-250.064-250.064s112.176-250.064 250.064-250.064 250.064 112.176 250.064 250.064-112.176 250.064-250.064 250.064zM512 248.832c-102.608 0-186.064 83.472-186.064 186.064s83.472 186.064 186.064 186.064 186.064-83.472 186.064-186.064-83.472-186.064-186.064-186.064z" />
<glyph unicode="&#xe934;" glyph-name="card-carousel" d="M736 826.144h-448c-17.664 0-32-14.336-32-32v-640c0-17.664 14.336-32 32-32h448c17.664 0 32 14.336 32 32v640c0 17.664-14.336 32-32 32zM704 762.144v-210.752l-73.376 73.376c-12.496 12.496-32.752 12.496-45.248 0l-73.376-73.376-105.376 105.376c-12.496 12.496-32.752 12.496-45.248 0l-41.376-41.376v146.752h384zM320 186.144v338.752l64 64 137.376-137.376c6.256-6.256 14.432-9.376 22.624-9.376s16.368 3.12 22.624 9.376c12.496 12.496 12.496 32.752 0 45.248l-9.376 9.376 50.752 50.752 96-96v-274.752h-384zM199.76 793.184l-128 32c-17.088 4.32-34.512-6.144-38.816-23.28-4.288-17.152 6.144-34.528 23.28-38.816l103.76-25.936v-382.032l-103.76-25.936c-17.136-4.288-27.568-21.664-23.28-38.816 3.648-14.528 16.688-24.24 31.008-24.24 2.576 0 5.184 0.304 7.792 0.96l88.24 22.064v-78.032l-103.76-25.936c-17.136-4.288-27.568-21.664-23.28-38.816 3.648-14.528 16.688-24.24 31.008-24.24 2.576 0 5.184 0.304 7.792 0.96l128 32c14.24 3.568 24.24 16.352 24.24 31.040v576.016c0 14.688-10 27.488-24.24 31.040zM608 378.144h-224c-17.664 0-32-14.336-32-32s14.336-32 32-32h224c17.664 0 32 14.336 32 32s-14.336 32-32 32zM480 666.144h4.016c17.664 0 32 14.336 32 32s-14.336 32-32 32h-4.016c-17.664 0-32-14.336-32-32s14.336-32 32-32zM516.016 90.144h-8.032c-17.664 0-32-14.336-32-32s14.336-32 32-32h8.032c17.664 0 32 14.336 32 32s-14.336 32-32 32zM416 90.144h-7.984c-17.664 0-32-14.336-32-32s14.336-32 32-32h7.984c17.664 0 32 14.336 32 32s-14.336 32-32 32zM616.016 90.144h-8.016c-17.664 0-32-14.336-32-32s14.336-32 32-32h8.016c17.664 0 32 14.336 32 32s-14.336 32-32 32zM512 282.144h-128c-17.664 0-32-14.336-32-32s14.336-32 32-32h128c17.664 0 32 14.336 32 32s-14.336 32-32 32zM905.376 419.52c6.256-6.256 14.432-9.376 22.624-9.376s16.368 3.12 22.624 9.376l32 32c12.496 12.496 12.496 32.752 0 45.248l-32 32c-12.496 12.496-32.752 12.496-45.248 0s-12.496-32.752 0-45.248l9.376-9.376-9.376-9.376c-12.496-12.496-12.496-32.752 0-45.248zM118.624 528.768c-12.496 12.496-32.752 12.496-45.248 0l-32-32c-12.496-12.496-12.496-32.752 0-45.248l32-32c6.256-6.256 14.432-9.376 22.624-9.376s16.368 3.12 22.624 9.376c12.496 12.496 12.496 32.752 0 45.248l-9.376 9.376 9.376 9.376c12.496 12.496 12.496 32.752 0 45.248zM952.24 267.088c2.608-0.656 5.216-0.96 7.792-0.96 14.336 0 27.376 9.696 31.008 24.24 4.288 17.152-6.144 34.528-23.28 38.816l-103.76 25.936v382.032l103.76 25.936c17.136 4.288 27.568 21.664 23.28 38.816-4.304 17.136-21.68 27.6-38.816 23.28l-128-32c-14.24-3.568-24.24-16.352-24.24-31.040v-576c0-14.688 10-27.488 24.24-31.040l128-32c2.608-0.656 5.216-0.96 7.792-0.96 14.336 0 27.376 9.696 31.008 24.24 4.288 17.152-6.144 34.528-23.28 38.816l-103.76 25.936v78.032l88.24-22.064z" />
<glyph unicode="&#xe935;" glyph-name="card-slider" d="M688.812 811.232h-354.22c-47.14 0-85.5-38.36-85.5-85.5v-555.46c0-47.16 38.36-85.5 85.5-85.5h354.22c47.16 0 85.5 38.34 85.5 85.5v555.46c0 47.14-38.34 85.5-85.5 85.5zM731.312 170.27c0-23.44-19.060-42.5-42.5-42.5h-354.22c-23.44 0-42.5 19.060-42.5 42.5v514.638l83.324 83.324h313.396c23.44 0 42.5-19.060 42.5-42.5v-555.46zM682.012 751.37h-265.576c-11.874 0-21.5-9.624-21.5-21.5s9.626-21.5 21.5-21.5h73.398c2.664-35.914 32.714-64.326 69.296-64.326s66.632 28.412 69.296 64.326h32.088v-191.538h-277.222l82.404 114.844 77.924-83.678c4.080-4.378 9.852-6.874 15.782-6.848 5.984 0.014 11.692 2.52 15.75 6.916l70.722 76.616c8.054 8.726 7.51 22.328-1.214 30.382s-22.328 7.51-30.38-1.214l-54.994-59.576-80.016 85.922c-4.394 4.716-10.676 7.212-17.104 6.804-6.432-0.41-12.342-3.686-16.1-8.922l-122.132-170.21c-4.7-6.55-5.34-15.18-1.66-22.354 3.682-7.172 11.066-11.682 19.128-11.682h340.612c11.874 0 21.5 9.624 21.5 21.5v234.538c0 11.876-9.626 21.5-21.5 21.5zM559.13 687.044c-12.842 0-23.574 9.184-25.992 21.326h51.986c-2.418-12.142-13.15-21.326-25.992-21.326zM581.85 227.924c11.874 0 21.5 9.624 21.5 21.5s-9.626 21.5-21.5 21.5h-140.29c-11.874 0-21.5-9.624-21.5-21.5s9.626-21.5 21.5-21.5h140.29zM667.562 207.866h-311.712c-11.874 0-21.5-9.624-21.5-21.5s9.626-21.5 21.5-21.5h311.712c11.874 0 21.5 9.624 21.5 21.5s-9.626 21.5-21.5 21.5zM678.012 447.452h-332.62c-14.060 0-25.5-11.44-25.5-25.5v-99.16c0-14.060 11.44-25.5 25.5-25.5h332.62c14.060 0 25.5 11.44 25.5 25.5v99.16c0 14.060-11.44 25.5-25.5 25.5zM396.012 384.152l6.6 20.3 3.94 12.1c0.1 0.36 0.62 0.36 0.74 0l3.92-12.1 6.6-20.3h34.080c0.38 0 0.52-0.48 0.22-0.7l-27.56-20.020 7.52-23.14 3-9.26c0.12-0.36-0.28-0.66-0.6-0.44l-27.56 20.020-27.56-20.020c-0.3-0.22-0.72 0.080-0.6 0.44l3 9.26 7.52 23.14-26.38 19.16v1.56h33.12zM465.772 370.752c0 3.4 1.38 6.48 3.6 8.72 2.24 2.22 5.32 3.6 8.72 3.6h162.76c6.8 0 12.3-5.52 12.3-12.32 0-3.4-1.38-6.48-3.6-8.72-2.22-2.22-5.3-3.6-8.7-3.6h-162.76c-6.8 0-12.32 5.52-12.32 12.32zM153.504 690.506h56.6c11.874 0 21.5 9.624 21.5 21.5s-9.626 21.5-21.5 21.5h-56.6c-37.682 0-68.338-30.656-68.338-68.338v-465.164c0-37.682 30.656-68.338 68.338-68.338h56.6c11.874 0 21.5 9.624 21.5 21.5s-9.626 21.5-21.5 21.5h-56.6c-13.972 0-25.338 11.368-25.338 25.338v465.164c0 13.97 11.366 25.338 25.338 25.338zM870.494 733.506h-56.598c-11.874 0-21.5-9.624-21.5-21.5s9.626-21.5 21.5-21.5h56.598c13.972 0 25.338-11.368 25.338-25.338v-465.164c0-13.97-11.368-25.338-25.338-25.338h-56.598c-11.874 0-21.5-9.624-21.5-21.5s9.626-21.5 21.5-21.5h56.598c37.682 0 68.338 30.656 68.338 68.338v465.164c0 37.682-30.658 68.338-68.338 68.338z" />
<glyph unicode="&#xe936;" glyph-name="caret-down" d="M670.976 559.744l-283.92 0.432c-48.272 0-72.688-58.208-38.8-92.64l141.168-143.472c10.656-10.832 24.736-16.256 38.816-16.256 13.952 0 27.904 5.328 38.544 16l142.656 143.040c34.208 34.288 9.968 92.832-38.464 92.896zM528.288 375.84l-118.384 120.304 238.016-0.368-119.632-119.952z" />
<glyph unicode="&#xe937;" glyph-name="caret-left" d="M583.344 644.464c-13.248 0-26.752-4.864-37.808-15.744l-143.472-141.168c-21.584-21.232-21.696-55.984-0.256-77.36l143.040-142.656c11.088-11.056 24.704-16 38.064-16 27.968 0 54.784 21.696 54.832 54.48l0.432 283.824c0.048 32.832-26.8 54.64-54.832 54.64zM573.792 329.072l-119.952 119.632 120.304 118.384-0.368-238z" />
<glyph unicode="&#xe938;" glyph-name="caret-right" d="M622.176 485.808l-143.040 142.656c-11.088 11.056-24.704 16-38.064 16-27.968 0-54.784-21.696-54.832-54.48l-0.432-283.824c-0.048-32.832 26.8-54.64 54.832-54.64 13.248 0 26.752 4.864 37.808 15.744l143.472 141.168c21.584 21.232 21.696 55.984 0.256 77.36zM449.856 328.928l0.368 238 119.952-119.632-120.304-118.384z" />
<glyph unicode="&#xe939;" glyph-name="caret-up" d="M692.72 414.464l-141.168 143.472c-10.656 10.832-24.736 16.256-38.816 16.256-13.952 0-27.904-5.328-38.544-16l-142.656-143.040c-34.208-34.288-9.968-92.832 38.464-92.896l283.92-0.432c48.272 0 72.688 58.208 38.8 92.64zM393.072 386.208l119.632 119.952 118.384-120.304-238.016 0.368z" />
<glyph unicode="&#xe93a;" glyph-name="chart" d="M246.272 524.176h-150.48c-35.232 0-63.792-28.56-63.792-63.792v-403.52c0-35.232 28.56-63.792 63.792-63.792h150.48c35.232 0 63.792 28.56 63.792 63.792v403.52c0 35.232-28.56 63.792-63.792 63.792zM96 56.864l-0.208 403.312h150.256l0.208-403.088-150.272-0.208zM587.232 902.928h-150.48c-35.232 0-63.792-28.56-63.792-63.792v-782.272c0-35.232 28.56-63.792 63.792-63.792h150.48c35.232 0 63.792 28.56 63.792 63.792v782.272c0 35.232-28.56 63.792-63.792 63.792zM436.976 56.864l-0.208 782.048h150.272l0.208-781.84-150.272-0.208zM928.208 706.8h-150.48c-35.232 0-63.792-28.56-63.792-63.792v-586.144c0-35.232 28.56-63.792 63.792-63.792h150.48c35.232 0 63.792 28.56 63.792 63.792v586.144c0 35.232-28.56 63.792-63.792 63.792zM777.952 56.864l-0.208 585.92h150.272l0.208-585.712-150.256-0.208z" />
<glyph unicode="&#xe93b;" glyph-name="chart-line-down" d="M968 32l-864 0.656v863.344c0 17.664-14.336 32-32 32s-32-14.336-32-32v-863.344c0-35.648 28.992-64.656 64.656-64.656h863.344c17.664 0 32 14.336 32 32s-14.336 32-32 32zM363.952 326.032c5.488-7.36 13.856-12.016 23.008-12.784 0.896-0.064 1.76-0.112 2.656-0.112 8.224 0 16.176 3.168 22.16 8.912l220.528 211.536 164.368-196.592c11.328-13.552 31.488-15.36 45.072-4.016 13.552 11.328 15.36 31.52 4.016 45.072l-186.336 222.88c-5.68 6.8-13.936 10.944-22.8 11.424-8.784 0.416-17.488-2.736-23.904-8.864l-219.088-210.16-166.56 223.824c-10.544 14.176-30.592 17.12-44.784 6.576-14.176-10.56-17.104-30.608-6.56-44.768l188.224-252.912zM706.464 230.656c0-17.664 14.336-32 32-32h205.904c17.664 0 32 14.336 32 32v206.4c0 17.664-14.336 32-32 32s-32-14.336-32-32v-174.4h-173.904c-17.664 0-32-14.336-32-32z" />
<glyph unicode="&#xe93c;" glyph-name="chart-line-up" d="M969.648 30.944h-864.352c-0.672 0-1.216 0.544-1.216 1.216v864.368c0 17.376-14.096 31.472-31.472 31.472s-31.472-14.096-31.472-31.472v-864.352c0-35.376 28.784-64.16 64.16-64.16h864.352c17.376 0 31.472 14.096 31.472 31.472s-14.096 31.472-31.472 31.472zM183.36 205.136c5.648-4.208 12.24-6.224 18.768-6.224 9.616 0 19.104 4.384 25.28 12.688l167.136 224.592 219.808-210.848c6.288-6.032 14.864-9.184 23.52-8.72 8.72 0.48 16.832 4.544 22.416 11.248l186.576 223.136c11.152 13.328 9.376 33.184-3.952 44.336-13.376 11.152-33.2 9.376-44.336-3.952l-164.976-197.28-221.216 212.208c-6.528 6.24-15.392 9.36-24.4 8.656-9.008-0.752-17.248-5.328-22.64-12.576l-188.432-253.216c-10.368-13.936-7.488-33.664 6.448-44.032zM739.84 566.752h174.688v-175.168c0-17.376 14.096-31.472 31.472-31.472s31.472 14.096 31.472 31.472v206.64c0 17.376-14.096 31.472-31.472 31.472h-206.16c-17.376 0-31.472-14.096-31.472-31.472s14.096-31.472 31.472-31.472z" />
<glyph unicode="&#xe93d;" glyph-name="check" d="M919.104 711.712c-12.224 12.736-32.48 13.2-45.248 0.976l-482.624-462.416-241.632 221.264c-13.040 11.936-33.28 11.040-45.216-2s-11.040-33.28 2-45.216l263.728-241.504c6.112-5.6 13.872-8.4 21.616-8.4 7.984 0 15.968 2.976 22.144 8.896l504.272 483.152c12.752 12.224 13.2 32.48 0.976 45.248z" />
<glyph unicode="&#xe93e;" glyph-name="checkbox" d="M307.708 276.5h-156.376c-12.958 0-23.5-10.542-23.5-23.5v-166.666c0-12.958 10.542-23.5 23.5-23.5h156.376c12.958 0 23.5 10.542 23.5 23.5v166.666c0 12.958-10.542 23.5-23.5 23.5zM288.208 105.834h-117.376v127.666h117.376v-127.666zM319.488 426.58c-11.874 0-21.5-9.624-21.5-21.5v-11.248c0-5.188-4.22-9.406-9.408-9.406h-108.342c-5.186 0-9.406 4.218-9.406 9.406v108.342c0 5.188 4.22 9.406 9.406 9.406h73.634c11.876 0 21.5 9.624 21.5 21.5s-9.624 21.5-21.5 21.5h-73.634c-28.896 0-52.406-23.51-52.406-52.406v-108.342c0-28.896 23.51-52.406 52.406-52.406h108.342c28.898 0 52.408 23.51 52.408 52.406v11.248c0 11.876-9.626 21.5-21.5 21.5zM329.862 546.588l-86.59-86.59-14.48 14.478c-8.396 8.394-22.008 8.394-30.406 0-8.396-8.396-8.396-22.010 0-30.406l23.026-23.026c5.838-5.84 13.602-9.056 21.858-9.056s16.020 3.216 21.856 9.054l95.138 95.138c8.396 8.396 8.396 22.010 0 30.406-8.396 8.394-22.010 8.394-30.406 0zM180.24 617.754h108.342c28.898 0 52.408 23.51 52.408 52.408l-1.434 19.688c-0.898 11.84-11.22 20.732-23.066 19.808-11.84-0.898-20.708-11.226-19.808-23.066l1.292-17.012c-0.302-4.918-4.398-8.826-9.39-8.826h-108.342c-5.186 0-9.406 4.22-9.406 9.408v108.342c0 5.188 4.22 9.406 9.406 9.406h73.634c11.876 0 21.5 9.624 21.5 21.5s-9.624 21.5-21.5 21.5h-73.634c-28.896 0-52.406-23.51-52.406-52.406v-108.342c0-28.898 23.51-52.408 52.406-52.408zM329.862 822.92l-86.59-86.59-14.48 14.478c-8.396 8.394-22.008 8.394-30.406 0-8.396-8.396-8.396-22.010 0-30.406l23.026-23.026c5.838-5.84 13.602-9.056 21.858-9.056s16.020 3.216 21.856 9.054l95.138 95.138c8.396 8.396 8.396 22.010 0 30.406-8.396 8.394-22.010 8.394-30.406 0zM405.334 468.168h287.208c11.874 0 21.5 9.624 21.5 21.5s-9.626 21.5-21.5 21.5h-287.208c-11.874 0-21.5-9.624-21.5-21.5s9.626-21.5 21.5-21.5zM874.668 425.834h-469.334c-11.874 0-21.5-9.624-21.5-21.5s9.626-21.5 21.5-21.5h469.334c11.874 0 21.5 9.624 21.5 21.5s-9.626 21.5-21.5 21.5zM405.334 190.834h287.208c11.874 0 21.5 9.624 21.5 21.5s-9.626 21.5-21.5 21.5h-287.208c-11.874 0-21.5-9.624-21.5-21.5s9.626-21.5 21.5-21.5zM787.836 148.5h-382.504c-11.874 0-21.5-9.624-21.5-21.5s9.626-21.5 21.5-21.5h382.504c11.876 0 21.5 9.624 21.5 21.5s-9.624 21.5-21.5 21.5zM405.334 745.5h216.262c11.874 0 21.5 9.624 21.5 21.5s-9.626 21.5-21.5 21.5h-216.262c-11.874 0-21.5-9.624-21.5-21.5s9.626-21.5 21.5-21.5zM405.334 660.168h345.562c11.874 0 21.5 9.624 21.5 21.5s-9.626 21.5-21.5 21.5h-345.562c-11.874 0-21.5-9.624-21.5-21.5s9.626-21.5 21.5-21.5z" />
<glyph unicode="&#xe93f;" glyph-name="chevron-down" d="M902.528 655.968c-12.544 12.448-32.816 12.352-45.248-0.208l-344.56-347.616-346.080 346.576c-12.48 12.496-32.736 12.512-45.248 0.032s-12.528-32.736-0.032-45.248l368.8-369.344c6-6.016 14.144-9.392 22.64-9.392h0.064c8.512 0 16.672 3.424 22.672 9.472l367.2 370.464c12.448 12.544 12.352 32.816-0.208 45.248z" />
<glyph unicode="&#xe940;" glyph-name="chevron-left" d="M719.744 102.72l-347.6 344.56 346.576 346.080c12.512 12.48 12.528 32.736 0.032 45.248-12.48 12.496-32.736 12.528-45.248 0.032l-369.328-368.8c-6.032-6.016-9.408-14.192-9.392-22.704s3.424-16.672 9.472-22.672l370.448-367.2c6.24-6.192 14.384-9.28 22.528-9.28 8.24 0 16.464 3.168 22.72 9.472 12.448 12.544 12.352 32.816-0.208 45.248z" />
<glyph unicode="&#xe941;" glyph-name="chevron-right" d="M719.744 471.536l-370.448 367.184c-12.544 12.448-32.816 12.352-45.248-0.208-12.448-12.544-12.352-32.816 0.208-45.248l347.6-344.56-346.576-346.080c-12.512-12.48-12.528-32.736-0.032-45.248 6.256-6.256 14.448-9.392 22.64-9.392s16.368 3.12 22.608 9.36l369.328 368.8c6.032 6.016 9.408 14.192 9.392 22.704s-3.424 16.672-9.472 22.672z" />
<glyph unicode="&#xe942;" glyph-name="chevrons-down" d="M841.232 478.944l-344.544-347.616-346.080 346.592c-12.48 12.512-32.736 12.528-45.248 0.032-12.496-12.48-12.512-32.736-0.032-45.248l368.8-369.344c6-6.016 14.144-9.392 22.64-9.392h0.064c8.512 0 16.672 3.424 22.672 9.472l367.2 370.448c12.432 12.56 12.336 32.816-0.208 45.264-12.576 12.448-32.816 12.352-45.264-0.208zM474.128 416.976c6-6.016 14.144-9.392 22.64-9.392h0.064c8.512 0 16.672 3.424 22.672 9.472l367.2 370.464c12.432 12.544 12.336 32.816-0.208 45.248-12.576 12.448-32.816 12.352-45.264-0.208l-344.544-347.616-346.080 346.592c-12.48 12.512-32.736 12.528-45.248 0.032-12.496-12.48-12.512-32.736-0.032-45.248l368.8-369.344z" />
<glyph unicode="&#xe943;" glyph-name="chevrons-left" d="M195.328 447.28l346.576 346.080c12.496 12.48 12.512 32.736 0.032 45.248s-32.736 12.528-45.248 0.032l-369.344-368.8c-6.032-6.016-9.408-14.192-9.392-22.704s3.424-16.672 9.472-22.672l370.464-367.2c6.256-6.192 14.384-9.28 22.528-9.28 8.24 0 16.464 3.168 22.736 9.472 12.432 12.544 12.336 32.816-0.208 45.248l-347.632 344.56zM896.576 102.72l-347.632 344.56 346.576 346.080c12.496 12.48 12.512 32.736 0.032 45.248-12.496 12.512-32.752 12.528-45.248 0.032l-369.344-368.8c-6.032-6.016-9.408-14.192-9.392-22.704s3.424-16.672 9.472-22.672l370.464-367.2c6.256-6.192 14.384-9.28 22.528-9.28 8.24 0 16.464 3.168 22.736 9.472 12.432 12.544 12.336 32.816-0.208 45.248z" />
<glyph unicode="&#xe944;" glyph-name="chevrons-right" d="M896.576 471.536l-370.464 367.184c-12.576 12.448-32.816 12.352-45.264-0.208-12.432-12.544-12.336-32.816 0.208-45.248l347.616-344.56-346.576-346.080c-12.496-12.48-12.512-32.736-0.032-45.248 6.256-6.256 14.432-9.392 22.64-9.392s16.352 3.12 22.608 9.36l369.344 368.8c6.032 6.016 9.408 14.192 9.392 22.704s-3.424 16.672-9.472 22.656zM552.416 448.864c0 8.512-3.424 16.672-9.472 22.656l-370.464 367.2c-12.576 12.448-32.816 12.352-45.264-0.208-12.432-12.544-12.336-32.816 0.208-45.248l347.616-344.56-346.576-346.080c-12.496-12.48-12.512-32.736-0.032-45.248 6.256-6.256 14.432-9.392 22.64-9.392s16.352 3.12 22.608 9.36l369.344 368.8c6.032 6.016 9.408 14.192 9.392 22.704z" />
<glyph unicode="&#xe945;" glyph-name="chevrons-up" d="M144 407.584c8.24 0 16.464 3.168 22.736 9.472l344.544 347.616 346.080-346.576c12.48-12.512 32.736-12.528 45.248-0.032 12.496 12.48 12.512 32.736 0.032 45.248l-368.8 369.344c-6 6.016-14.144 9.392-22.64 9.392h-0.064c-8.512 0-16.672-3.424-22.672-9.472l-367.2-370.464c-12.432-12.56-12.336-32.816 0.208-45.264 6.256-6.192 14.384-9.28 22.528-9.28zM533.84 479.024c-6 6.016-14.144 9.392-22.64 9.392h-0.064c-8.512 0-16.672-3.424-22.672-9.472l-367.2-370.464c-12.432-12.544-12.336-32.816 0.208-45.248 6.256-6.192 14.384-9.28 22.528-9.28 8.24 0 16.464 3.168 22.736 9.472l344.544 347.616 346.080-346.576c12.48-12.512 32.736-12.528 45.248-0.032 12.496 12.48 12.512 32.736 0.032 45.248l-368.8 369.344z" />
<glyph unicode="&#xe946;" glyph-name="chevron-up" d="M902.64 286.496l-368.8 369.344c-6 6.016-14.144 9.392-22.64 9.392h-0.064c-8.512 0-16.672-3.424-22.672-9.472l-367.2-370.464c-12.432-12.544-12.336-32.816 0.208-45.248 6.256-6.192 14.384-9.28 22.528-9.28 8.24 0 16.464 3.168 22.736 9.472l344.544 347.616 346.080-346.576c12.48-12.496 32.736-12.528 45.248-0.032 12.496 12.48 12.512 32.736 0.032 45.248z" />
<glyph unicode="&#xe947;" glyph-name="circle-arrow-down" d="M512 930.784c-265.104 0-480-214.912-480-480s214.896-480 480-480 480 214.896 480 480-214.896 480-480 480zM512 34.784c-229.376 0-416 186.624-416 416s186.624 416 416 416 416-186.624 416-416-186.624-416-416-416zM634.304 439.568l-90.24-90.224 0.272 280.16c0 17.664-14.304 32.016-31.968 32.032h-0.032c-17.664 0-31.984-14.304-32-31.968l-0.272-280.352-90.352 90.352c-12.496 12.496-32.752 12.496-45.248 0s-12.496-32.752 0-45.248l144.928-144.928c6.256-6.256 14.432-9.376 22.624-9.376s16.368 3.12 22.624 9.376l144.928 144.928c12.496 12.496 12.496 32.752 0 45.248s-32.752 12.496-45.248 0z" />
<glyph unicode="&#xe948;" glyph-name="circle-arrow-down-left" d="M512 928c-265.104 0-480-214.896-480-480s214.896-480 480-480 480 214.896 480 480-214.896 480-480 480zM512 32c-229.376 0-416 186.624-416 416s186.624 416 416 416 416-186.624 416-416-186.624-416-416-416zM616.016 596.816l-198.416-198.048v127.776c0 17.664-14.336 32-32 32s-32-14.336-32-32v-204.96c0-17.664 14.336-32 32-32h204.96c17.664 0 32 14.336 32 32s-14.336 32-32 32h-127.6l198.288 197.92c12.512 12.48 12.528 32.736 0.032 45.264-12.48 12.496-32.736 12.528-45.264 0.032z" />
<glyph unicode="&#xe949;" glyph-name="circle-arrow-down-right" d="M512 928c-265.104 0-480-214.896-480-480s214.896-480 480-480 480 214.896 480 480-214.896 480-480 480zM512 32c-229.376 0-416 186.624-416 416s186.624 416 416 416 416-186.624 416-416-186.624-416-416-416zM638.4 558.56c-17.664 0-32-14.336-32-32v-127.6l-197.92 198.288c-12.48 12.496-32.736 12.528-45.264 0.032-12.512-12.48-12.528-32.736-0.032-45.264l198.048-198.416h-127.776c-17.664 0-32-14.336-32-32s14.336-32 32-32h204.96c17.664 0 32 14.336 32 32v204.96c0 17.664-14.336 32-32 32z" />
</font>
</defs>
</svg>
